• Игры для PS4
  • Игры для PS3
  • Игры для XBOX360
  • Игры для PC
  • Игры для PS2
  • Игры для PSP
  • Для телефонов
  • Музыка
  • Книги / Журналы
  • Обои
  • Опрос
    Откуда Вы о нас узнали?
      0
    • От знакомых2,1,false,300,full
    • Из социальных сетей2,2,false,300,full
    • Из поисковых систем2,3,false,300,full
    • Другое2,4,false,300,full
    Статистика
    Всего онлайн -
    Гостей -
    Пользователей -
    Короли трекера
    
    Благодарности () Закрыть
    Говорящие с ветром
    | Windtalkers |

    Информация о фильме
    Название: Говорящие с ветром
    Оригинальное название: Windtalkers
    Год выхода: 2002
    Жанр: боевик, военный
    Режиссер: Джон Ву
    В ролях: Николас Кейдж, Адам Бич, Петер Стормаре, Ноа Эммерик, Марк Руффало, Брайан Ван Холт, Мартин Хендерсон, Роджер Уилли, Фрэнсис О\"Коннор, Кристиан Слэйтер, Джейсон Айзекс, Билли Мортс, Кэмерон Тор, Кевин Куни, Холмс Осборн, Кит Кэмпбелл, Клейтон Дж. Барбер, Скотт Эткинсон, Джереми Дэвидсон, Брайан Мэйнард, Альберт Смит, Джеймс Д. Девер, Винсент Уиппл, Джеймс Пол Морс, Крис Дэвлин, Джефф Дэвис, Глен Бегей

    О фильме: Вторая мировая война. Америка ведет ожесточенные бои с японцами в Тихом океане. В течении этой войны японцы искусно расшифровывают секретные американские радиограммы. Это обстоятельство заставило американское правительство завербовать несколько сотен индейцев Навахо, чтобы использовать их родной язык в качестве кода для секретных сообщений. Морскому пехотинцу Джо Эндерсу дается задание: охранять Бена Яхзи, который знает секретный код, охранять любой ценой, и даже убить своего подопечного, если он попадет в плен к врагам. Джо предстоит решить, чьей жизнью пожертвовать – своей или Бена – чтобы защитить код…

    [img]http://imdb.snick.ru/ratefor/02/tt0245562.png[/img]

    Страна: США
    Студия: Lion Rock Productions, Metro-Goldwyn-Mayer
    Продолжительность: 02:33:33
    Перевод: Профессиональный многоголосый

    Файл
    Кодек: h.264
    Качество: DVDRip-AVC
    Видео: 1986 Кбит/с, 712x356@844x356, 23.976 кадр/с

    Звук:
    • №1: Русский (AC3, 6 ch, 384 Кбит/с) Профессиональный многоголосый [Позитив-мультимедиа]
    • №2: Русский (AC3, 2 ch, 192 Кбит/с) Профессиональный многоголосый [НТВ]
    • №3: Английский (AC3, 6 ch, 384 Кбит/с)

    Субтитры: Русские, английские

    MediaInfo

    Полное имя : Windtalkers.-DC-.2002.x264.DVDRip-AVC.0ptimus.mkv
    Формат : Matroska
    Версия формата : Version 2
    Размер файла : 3,16 Гбайт
    Продолжительность : 2 ч. 33 м.
    Общий поток : 2948 Кбит/сек
    Название фильма : Говорящие с ветром (Режиссерская версия) | Windtalkers (Director's Cut) [2002] -= DVDRip (AVC) by 0ptimus =-
    Дата кодирования : UTC 2015-05-17 04:57:37
    Программа кодирования : mkvmerge v6.6.0 ('The Edge Of The In Between') built on Dec 1 2013 17:55:00
    Библиотека кодирования : libebml v1.3.0 + libmatroska v1.4.1

    Видео
    Идентификатор : 1
    Формат : AVC
    Формат/Информация : Advanced Video Codec
    Профиль формата : High@L4.1
    Параметр CABAC формата : Да
    Параметр ReFrames формата : 9 кадров
    Идентификатор кодека : V_MPEG4/ISO/AVC
    Продолжительность : 2 ч. 33 м.
    Битрейт : 1986 Кбит/сек
    Ширина : 712 пикселей
    Высота : 356 пикселей
    Соотношение сторон : 2,35:1
    Соотношение сторон в оригинале : 2,40:1
    Режим частоты кадров : Постоянный
    Частота кадров : 23,976 кадра/сек
    Цветовое пространство : YUV
    Субдискретизация насыщенности : 4:2:0
    Битовая глубина : 8 бит
    Тип развёртки : Прогрессивная
    Бит/(Пиксели*Кадры) : 0.327
    Размер потока : 2,07 Гбайт (65%)
    Заголовок : Rip by 0ptimus
    Библиотека кодирования : x264 core 133 r2334 a3ac64b
    Настройки программы : cabac=1 / ref=9 / deblock=1:-3:-3 / analyse=0x3:0x113 / me=umh / subme=11 / psy=1 / psy_rd=1.00:0.20 / mixed_ref=1 / me_range=32 / chroma_me=1 / trellis=2 / 8x8dct=1 / cqm=0 / deadzone=21,11 / fast_pskip=0 / chroma_qp_offset=-3 / threads=3 / lookahead_threads=1 / sliced_threads=0 / nr=0 / decimate=0 / interlaced=0 / bluray_compat=0 / constrained_intra=0 / bframes=12 / b_pyramid=2 / b_adapt=2 / b_bias=0 / direct=3 / weightb=1 / open_gop=0 / weightp=2 / keyint=240 / keyint_min=23 / scenecut=40 / intra_refresh=0 / rc_lookahead=40 / rc=2pass / mbtree=1 / bitrate=1986 / ratetol=1.0 / qcomp=0.60 / qpmin=0 / qpmax=69 / qpstep=4 / cplxblur=20.0 / qblur=0.5 / vbv_maxrate=50000 / vbv_bufsize=50000 / nal_hrd=none / ip_ratio=1.40 / aq=1:1.00
    Язык : English
    Default : Да
    Forced : Да

    Аудио #1
    Идентификатор : 2
    Формат : AC-3
    Формат/Информация : Audio Coding 3
    Расширение режима : CM (complete main)
    Параметр Endianness формата : Big
    Идентификатор кодека : A_AC3
    Продолжительность : 2 ч. 33 м.
    Вид битрейта : Постоянный
    Битрейт : 384 Кбит/сек
    Каналы : 6 каналов
    Расположение каналов : Front: L C R, Side: L R, LFE
    Частота : 48,0 КГц
    Битовая глубина : 16 бит
    Метод сжатия : С потерями
    Размер потока : 422 Мбайт (13%)
    Заголовок : Многоголосый AC3 5.1 @ 384 kbps
    Язык : Russian
    Default : Да
    Forced : Да

    Аудио #2
    Идентификатор : 3
    Формат : AC-3
    Формат/Информация : Audio Coding 3
    Расширение режима : CM (complete main)
    Параметр Endianness формата : Big
    Идентификатор кодека : A_AC3
    Продолжительность : 2 ч. 33 м.
    Вид битрейта : Постоянный
    Битрейт : 192 Кбит/сек
    Каналы : 2 канала
    Расположение каналов : Front: L R
    Частота : 48,0 КГц
    Битовая глубина : 16 бит
    Метод сжатия : С потерями
    Размер потока : 211 Мбайт (7%)
    Заголовок : Многоголосый [НТВ] AC3 2.0 @ 192 kbps
    Язык : Russian
    Default : Нет
    Forced : Нет

    Аудио #3
    Идентификатор : 4
    Формат : AC-3
    Формат/Информация : Audio Coding 3
    Расширение режима : CM (complete main)
    Параметр Endianness формата : Big
    Идентификатор кодека : A_AC3
    Продолжительность : 2 ч. 33 м.
    Вид битрейта : Постоянный
    Битрейт : 384 Кбит/сек
    Каналы : 6 каналов
    Расположение каналов : Front: L C R, Side: L R, LFE
    Частота : 48,0 КГц
    Битовая глубина : 16 бит
    Метод сжатия : С потерями
    Размер потока : 422 Мбайт (13%)
    Заголовок : AC3 5.1 @ 384 kbps
    Язык : English
    Default : Нет
    Forced : Нет

    Текст #1
    Идентификатор : 5
    Формат : UTF-8
    Идентификатор кодека : S_TEXT/UTF8
    Идентификатор кодека/Информация : UTF-8 Plain Text
    Язык : Russian
    Default : Нет
    Forced : Нет

    Текст #2
    Идентификатор : 6
    Формат : UTF-8
    Идентификатор кодека : S_TEXT/UTF8
    Идентификатор кодека/Информация : UTF-8 Plain Text
    Язык : English
    Default : Нет
    Forced : Нет

    Меню
    00:00:00.000 : :Chapter 01
    00:04:31.200 : :Chapter 02
    00:09:53.500 : :Chapter 03
    00:10:54.500 : :Chapter 04
    00:12:25.533 : :Chapter 05
    00:16:46.833 : :Chapter 06
    00:21:14.367 : :Chapter 07
    00:27:26.168 : :Chapter 08
    00:30:35.335 : :Chapter 09
    00:34:35.835 : :Chapter 10
    00:40:14.669 : :Chapter 11
    00:43:01.836 : :Chapter 12
    00:49:52.503 : :Chapter 13
    00:52:31.003 : :Chapter 14
    00:57:20.337 : :Chapter 15
    01:00:14.004 : :Chapter 16
    01:02:24.004 : :Chapter 17
    01:05:57.671 : :Chapter 18
    01:09:10.505 : :Chapter 19
    01:11:52.339 : :Chapter 20
    01:17:32.173 : :Chapter 21
    01:19:38.507 : :Chapter 22
    01:23:19.141 : :Chapter 23
    01:26:25.308 : :Chapter 24
    01:32:41.341 : :Chapter 25
    01:34:32.508 : :Chapter 26
    01:37:25.508 : :Chapter 27
    01:40:24.309 : :Chapter 28
    01:44:17.143 : :Chapter 29
    01:45:42.143 : :Chapter 30
    01:52:48.011 : :Chapter 31
    01:57:18.645 : :Chapter 32
    01:59:39.479 : :Chapter 33
    02:05:29.213 : :Chapter 34
    02:09:03.847 : :Chapter 35
    02:14:22.548 : :Chapter 36
    02:20:15.848 : :Chapter 37
    02:23:39.048 : :Chapter 38
    02:25:53.515 : :Chapter 39
    02:28:18.182 : :Chapter 40Свернуть


    Скриншоты
    [screen]http://s017.radikal.ru/i404/1505/9d/14bc4716f212.png[/screen][screen]http://s012.radikal.ru/i319/1505/07/2aa7c920f9ca.png[/screen]
    [screen]http://s017.radikal.ru/i404/1505/ad/01ad96d2ec23.png[/screen][screen]http://s009.radikal.ru/i308/1505/95/e00474f67cea.png[/screen]
    [screen]http://s017.radikal.ru/i405/1505/6c/83907745609e.png[/screen][screen]http://i062.radikal.ru/1505/7b/2ef1b7745a78.png[/screen]Свернуть
    Похожие раздачи Искать похожие
    Инструкция по скачиванию
     1  Качаем uTorrent версии 2.0 и выше
     2  После установки, жмем выше под постером на ссылку Скачать [MediaGet] или Скачать .torrent
     3  Открываем скачанный файл через соответствующий клиент: MediaGet или uTorrent
     4  Ждем пока подключатся участники
     5  Качаем
    Комментарии о  Говорящие с ветром / Windtalkers | DVDRip-AVC 
    Ближайшее в кино
    Вверх