• Игры для PS4
  • Игры для PS3
  • Игры для XBOX360
  • Игры для PC
  • Игры для PS2
  • Игры для PSP
  • Для телефонов
  • Музыка
  • Книги / Журналы
  • Обои
  • Опрос
    Удобен ли сайт в использовании?
      0
    • Очень удобен, все понятно1,1,false,300,full
    • Удобен1,2,false,300,full
    • Средне1,3,false,300,full
    • Неудобен, трудно ориентироваться1,4,false,300,full
    • Совсем неудобен1,5,false,300,full
    Статистика
    Всего онлайн -
    Гостей -
    Пользователей -
    Короли трекера
    Благодарности () Закрыть
    Mylene Farmer: Stade de France (2009) BDRip 720p

    Оригинальное название: Mylene Farmer: Stade de France
    Год выхода: 2009
    Режиссёр:

    [img]http://lostpic.net/thumbs_images/6/0/a/60a4f7c3b933759cd1b3b6da25a11b08.jpg[/img][img]http://img.lostpic.net/orig_images/c/b/c/cbcb28ee12197b55c0877519acbc8b44.jpg[/img][img]http://lostpic.net/thumbs_images/6/0/f/60f98e8a0a3759d1a591bbb686202749.jpg[/img][img]http://img.lostpic.net/orig_images/7/3/2/73201ba25e9b87c2c6381ee951978d00.jpg[/img][img]http://img.lostpic.net/orig_images/1/3/0/1303eb54aff26c5328b47adcc7445456.jpg[/img][img]http://img.lostpic.net/orig_images/8/5/a/85a71fbcfbf5749ad4f5fd1b4609a503.jpg[/img]
    Poster
    [screen]http://img.lostpic.net/orig_images/3/4/0/3408c768d7bd0bb4601a693aeee03c56.jpg[/screen]Свернуть


    трек-лист
    Mylene Farmer: Stade de France (2009 г.)

    01. Avant la lumiere
    02. D`entre les morts
    03. Paradis inanime
    04. L`ame-stram-gram
    05. Je m`ennuie
    06. Outro Haka "Je m`ennuie"
    07. Appelle mon numero
    08. XXL
    09. California
    10. Pourvu qu`elles soient douces
    11. Point de suture
    12. Nous souviendrons nous
    13. Rever
    14. Laisse le vent emporter tout
    15. Ainsi soit je...
    16. Interlude Avant que l'ombre
    17. Libertine
    18. Sans contrefacon
    19. L`instant X
    20. Fuck Them All
    21. Degeneration
    22. C'est dans l'air
    23. Desenchantee
    24. Generique fin
    Свернуть


    MediaInfo
    General
    Unique ID : 226059246127808205191994473914869180631
    (0xAA116D588B1C0A6899CAFF019BE768D7)
    Complete name : Mylene.Farmer.Stade.de.France.2009.BDRip720p.mkv
    Format : Matroska
    Format version : Version 4 / Version 2
    File size : 7.76 GiB
    Duration : 2h 19mn
    Overall bit rate : 7 967 Kbps
    Movie name : MYLENE_FARMER_STADE_DE_FRANCE_2009_V_ATAKy
    Encoded date : UTC 2015-04-16 07:25:57
    Writing application : mkvmerge v7.3.0 ('Nouages') 64bit built on Oct 22 2014 18:53:34

    Video
    ID : 1
    Format : AVC
    Format/Info : Advanced Video Codec
    Format profile : High@L4.0
    Format settings, CABAC : Yes
    Format settings, ReFrames : 9 frames
    Codec ID : V_MPEG4/ISO/AVC
    Duration : 2h 19mn
    Bit rate : 5 815 Kbps
    Width : 1 280 pixels
    Height : 720 pixels
    Display aspect ratio : 16:9
    Frame rate mode : Constant
    Frame rate : 25.000 fps
    Color space : YUV
    Chroma subsampling : 4:2:0
    Bit depth : 8 bits
    Scan type : Progressive
    Bits/(Pixel*Frame) : 0.252
    Stream size : 5.51 GiB (71%)
    Title : MYLENE_FARMER_STADE_DE_FRANCE_2009_V_ATAKy
    Writing library : x264 core 146 r2538M 121396c
    Encoding settings : cabac=1 / ref=9 / deblock=1:-2:-2 / analyse=0x3:0x133 / me=tesa / subme=11 / psy=1 / psy_rd=1,05:0,10 / mixed_ref=1 / me_range=24 / chroma_me=1 / trellis=2 / 8x8dct=1 / cqm=0 / deadzone=21,11 / fast_pskip=0 / chroma_qp_offset=-3 / threads=6 / lookahead_threads=1 / sliced_threads=0 / nr=0 / decimate=1 / interlaced=0 / bluray_compat=0 / constrained_intra=0 / bframes=9 / b_pyramid=2 / b_adapt=2 / b_bias=0 / direct=3 / weightb=1 / open_gop=0 / weightp=2 / keyint=250 / keyint_min=25 / scenecut=40 / intra_refresh=0 / rc_lookahead=250 / rc=2pass / mbtree=1 / bitrate=5815 / ratetol=1,0 / qcomp=0,70 / qpmin=3 / qpmax=69 / qpstep=4 / cplxblur=20,0 / qblur=0,5 / ip_ratio=1,40 / aq=2:1,00
    Language : English
    Default : Yes
    Forced : No
    _STATISTICS_WRITING_APP : mkvmerge v7.3.0 ('Nouages') 64bit built on Oct 22 2014 18:53:34
    _STATISTICS_WRITING_DATE_UTC : 2015-04-16 07:25:57
    _STATISTICS_TAGS : BPS DURATION NUMBER_OF_FRAMES NUMBER_OF_BYTES
    DURATION : 02:19:22.080000000
    NUMBER_OF_FRAMES : 209052
    NUMBER_OF_BYTES : 6078173125
    Color primaries : BT.709
    Transfer characteristics : BT.709
    Matrix coefficients : BT.709

    Audio #1
    ID : 2
    Format : AC-3
    Format/Info : Audio Coding 3
    Mode extension : CM (complete main)
    Format settings, Endianness : Big
    Codec ID : A_AC3
    Duration : 2h 19mn
    Bit rate mode : Constant
    Bit rate : 448 Kbps
    Channel(s) : 6 channels
    Channel positions : Front: L C R, Side: L R, LFE
    Sampling rate : 48.0 KHz
    Bit depth : 16 bits
    Compression mode : Lossy
    Stream size : 447 MiB (6%)
    Language : French
    Default : Yes
    Forced : No

    Audio #2
    ID : 3
    Format : AC-3
    Format/Info : Audio Coding 3
    Mode extension : CM (complete main)
    Format settings, Endianness : Big
    Codec ID : A_AC3
    Duration : 2h 19mn
    Bit rate mode : Constant
    Bit rate : 192 Kbps
    Channel(s) : 2 channels
    Channel positions : Front: L R
    Sampling rate : 48.0 KHz
    Bit depth : 16 bits
    Compression mode : Lossy
    Stream size : 191 MiB (2%)
    Language : French
    Default : No
    Forced : No

    Audio #3
    ID : 4
    Format : DTS
    Format/Info : Digital Theater Systems
    Mode : 16
    Format settings, Endianness : Big
    Codec ID : A_DTS
    Duration : 2h 19mn
    Bit rate mode : Constant
    Bit rate : 1 509 Kbps
    Channel(s) : 6 channels
    Channel positions : Front: L C R, Side: L R, LFE
    Sampling rate : 48.0 KHz
    Bit depth : 24 bits
    Compression mode : Lossy
    Stream size : 1.47 GiB (19%)
    Language : French
    Default : No
    Forced : No

    Text
    ID : 5
    Format : UTF-8
    Codec ID : S_TEXT/UTF8
    Codec ID/Info : UTF-8 Plain Text
    Title : French_Russian
    Language : French
    Default : No
    Forced : No

    Menu
    00:00:00.000 : en:Avant la lumiere
    00:01:07.760 : en:D`entre les morts
    00:06:03.280 : en:Paradis inanime
    00:10:45.400 : en:L`ame-stram-gram
    00:17:02.360 : en:Je m`ennuie
    00:21:26.760 : en:Outro Haka "Je m`ennuie"
    00:24:09.000 : en:Appelle mon numero
    00:29:28.280 : en:XXL
    00:35:34.440 : en:California
    00:40:33.800 : en:Pourvu qu`elles soient douces
    00:45:32.320 : en:Point de suture
    00:53:22.400 : en:Nous souviendrons nous
    00:59:39.800 : en:Rever
    01:08:32.200 : en:Laisse le vent emporter tout
    01:13:54.440 : en:Ainsi soit je...
    01:20:03.680 : en:Interlude "Avant que l'ombre..."
    01:25:35.000 : en:Libertine
    01:31:08.400 : en:Sans contrefacon
    01:37:14.400 : en:L`instant X
    01:42:10.000 : en:Fuck Them All
    01:47:02.600 : en:Degeneration
    01:54:30.200 : en:C'est dans l'air
    02:02:35.200 : en:Desenchantee
    02:13:17.000 : en:GeneriqueСвернуть
    Похожие раздачи Искать похожие
    Инструкция по скачиванию
     1  Качаем uTorrent версии 2.0 и выше
     2  После установки, жмем выше под постером на ссылку Скачать [MediaGet] или Скачать .torrent
     3  Открываем скачанный файл через соответствующий клиент: MediaGet или uTorrent
     4  Ждем пока подключатся участники
     5  Качаем
    Комментарии о  Mylene Farmer: Stade de France 
    Ближайшее в кино
    Вверх