• Игры для PS4
  • Игры для PS3
  • Игры для XBOX360
  • Игры для PC
  • Игры для PS2
  • Игры для PSP
  • Для телефонов
  • Музыка
  • Книги/Журналы
  • Обои
  •  
    Опрос
    Удобен ли сайт в использовании?
      0
    • Очень удобен, все понятно1,1,false,300,full
    • Удобен1,2,false,300,full
    • Средне1,3,false,300,full
    • Неудобен, трудно ориентироваться1,4,false,300,full
    • Совсем неудобен1,5,false,300,full
    Статистика
    Загрузка...
    Mylene Farmer: Stade de France
    Статус  Проверено
    В закладки
    Модератор: Max

    Mylene Farmer: Stade de France [Музыка 2009] скачать торрентом/torrent бесплатно

    Год выхода
    Категории
    Закачал
    Аноним | 13 июня 2015 в 11ч 05м 31с
    Раздел
    Отзывов
    0
    Раздают: 0 Качают: 0 Скачали: 2 Размер: 4.37 GB
    Инфо о раздаче | Благодарности |
    0/5
    0
    0 5 0
    Поддержи нас — расскажи друзьям!
    Orbitum
    Новый интернет-браузер Быстрее загружает сайты Экономит интернет—трафик Меняет оформление страницы ВК Блокирует всю рекламу на сайтах Загружает торренты как

    µTorrent

    клиент
    Объеденяет все твои чаты из соц. сетей в один Проигрывает твою музыку не заходя во ВКонтакте
    Скачать и многое другое... Подробности на сайте производителя
    Информация о концерте
    Оригинальное название: Mylene Farmer: Stade de France
    Год выхода: 2009
    Жанр: музыка, концерт
    Режиссер: Франсуа Ансс
    В ролях: Милен Фармер

    Описание: Грандиозное по масштабности концертное выступление французской поп дивы Милен Фармер прошедшее в Париже на стадионе Stade de France. Два завершающих турне концерта и 160 тысяч человек, которые пришли посмотреть на шоу с по настоящему голливудским размахом спецэффектов и с присуще французскому темпераменту накалу чувств. Огромная сцена располагающая на себе тонны света, звука и декораций. Звучание самых лучших песен за более чем 25 лет карьеры сопровождающихся великолепно поставленной хореографией и полной открытостью чувств самой скрытной французской певицы. Слезы и радость Милен Фармер вызывающие бурю эмоций в ответ от предано любящих ее поклонников.



    Страна: Франция
    Продолжительность: 02:19:22
    Перевод: Французский (Оригинал) Не Требуется

    Треклист
    01 Avant La Lumiere
    02 D'Entre Les Morts
    03 Paradis Inanime
    04 L'Ame-Stram-Gram
    05 Je M'Ennuie
    06 Outro Haka "Je M'Ennuie"
    07 Appelle Mon Numero
    08 XXL
    09 California
    10 Pourvu Qu'Elles Soient Douces
    11 Point De Suture
    12 Nous Souviendrons Nous
    13 Rever
    14 Laisse Le Vent Emporter Tout
    15 Ainsi Soit Je...
    16 Interlude "Avant Que L'Ombre..."
    17 Libertine
    18 Sans Contrefacon
    19 L'Instant X
    20 Fuck Them All
    21 Degeneration
    22 C'Est Dans L'Air
    23 Desenchantee
    24 Generique Fin


    Файл
    Формат: MKV
    Качество: BDRip-AVC (Источник: Blu-ray Disc)
    Видео: 1024x576 (16:9), 25.000 fps, 3208 kbps, 0.218 bit/pixel
    Аудио #1: AC-3, 2 ch, 640 kbps (Французский Оригинал)
    Аудио #2: AC-3, 6 ch, 640 kbps (Французский Оригинал)
    Субтитры: Английские (Форсированные)
    Навигация: Есть

    Скриншоты
    [img]http://i71.fastpic.ru/thumb/2015/0612/72/9170b3cf8a8028ced862fdd839c13b72.jpeg[/img][img]http://i71.fastpic.ru/big/2015/0612/83/3b80be96a0bdacf256bd34bdfa900883.png[/img][img]http://i71.fastpic.ru/big/2015/0612/85/c1ab6e85a0eccc34b1dd106f74853c85.png[/img][img]http://i71.fastpic.ru/big/2015/0612/3a/18707d67755095d25d4fd50da41a1e3a.png[/img]
    [img]http://i71.fastpic.ru/big/2015/0612/52/1c731ccf549d69a99a8d779a61d31052.png[/img][img]http://i71.fastpic.ru/big/2015/0612/35/ee27cd7ceda63c2fdcb9d6f64c6c2435.png[/img][img]http://i71.fastpic.ru/big/2015/0612/bf/a5834b2d90c153064a1a3fa34daaffbf.png[/img][img]http://i71.fastpic.ru/big/2015/0612/bf/fa8603884593063af7097e111c4b01bf.png[/img]


    MediaInfo
    General
    Unique ID : 250640901050764816091044665909860127381 (0xBC8FAE8169BE70398B04711FB5545295)
    Complete name : Mylene.Farmer.Stade.de.France.2009.BDRip.AVC.mkv
    Format : Matroska
    Format version : Version 2
    File size : 4.37 GiB
    Duration : 2h 19mn
    Overall bit rate : 4 490 Kbps
    Movie name : Mylene Farmer: Stade De France (2009)
    Encoded date : UTC 2015-06-12 16:11:30
    Writing application : mkvmerge v5.6.0 ('Kenya Kane&#039:wink: built on May 27 2012 16:44:04
    Writing library : libebml v1.2.3 + libmatroska v1.3.0
    Attachements : Cover.jpg

    Video
    ID : 1
    Format : AVC
    Format/Info : Advanced Video Codec
    Format profile : High@L4.1
    Format settings, CABAC : Yes
    Format settings, ReFrames : 4 frames
    Codec ID : V_MPEG4/ISO/AVC
    Duration : 2h 19mn
    Bit rate : 3 208 Kbps
    Width : 1 024 pixels
    Height : 576 pixels
    Display aspect ratio : 16:9
    Frame rate mode : Constant
    Frame rate : 25.000 fps
    Color space : YUV
    Chroma subsampling : 4:2:0
    Bit depth : 8 bits
    Scan type : Progressive
    Bits/(Pixel*Frame) : 0.218
    Stream size : 3.04 GiB (70%)
    Title : Mylene Farmer: Stade De France (2009)
    Writing library : x264 core 142 r2479 dd79a61
    Encoding settings : cabac=1 / ref=4 / deblock=1:-2:-2 / analyse=0x3:0x113 / me=umh / subme=11 / psy=1 / psy_rd=1.00:0.00 / mixed_ref=1 / me_range=32 / chroma_me=1 / trellis=2 / 8x8dct=1 / cqm=0 / deadzone=21,11 / fast_pskip=1 / chroma_qp_offset=-2 / threads=6 / lookahead_threads=1 / sliced_threads=0 / nr=0 / decimate=1 / interlaced=0 / bluray_compat=0 / constrained_intra=0 / bframes=3 / b_pyramid=2 / b_adapt=2 / b_bias=0 / direct=3 / weightb=1 / open_gop=0 / weightp=2 / keyint=250 / keyint_min=25 / scenecut=40 / intra_refresh=0 / rc=2pass / mbtree=0 / bitrate=3208 / ratetol=1.0 / qcomp=0.60 / qpmin=0 / qpmax=69 / qpstep=4 / cplxblur=20.0 / qblur=0.5 / ip_ratio=1.40 / pb_ratio=1.30 / aq=1:1.00
    Language : English
    Default : Yes
    Forced : No
    Color primaries : BT.709
    Transfer characteristics : BT.709
    Matrix coefficients : BT.709
    Color range : Limited

    Audio #1
    ID : 2
    Format : AC-3
    Format/Info : Audio Coding 3
    Mode extension : CM (complete main)
    Format settings, Endianness : Big
    Codec ID : A_AC3
    Duration : 2h 19mn
    Bit rate mode : Constant
    Bit rate : 640 Kbps
    Channel(s) : 2 channels
    Channel positions : Front: L R
    Sampling rate : 48.0 KHz
    Bit depth : 16 bits
    Compression mode : Lossy
    Stream size : 638 MiB (14%)
    Title : Французский 2.0
    Language : French
    Default : Yes
    Forced : No

    Audio #2
    ID : 3
    Format : AC-3
    Format/Info : Audio Coding 3
    Mode extension : CM (complete main)
    Format settings, Endianness : Big
    Codec ID : A_AC3
    Duration : 2h 19mn
    Bit rate mode : Constant
    Bit rate : 640 Kbps
    Channel(s) : 6 channels
    Channel positions : Front: L C R, Side: L R, LFE
    Sampling rate : 48.0 KHz
    Bit depth : 16 bits
    Compression mode : Lossy
    Stream size : 638 MiB (14%)
    Title : Французский 5.1
    Language : French
    Default : No
    Forced : No

    Text
    ID : 4
    Format : UTF-8
    Codec ID : S_TEXT/UTF8
    Codec ID/Info : UTF-8 Plain Text
    Title : Английские (Форсированные)
    Language : English
    Default : Yes
    Forced : No

    Menu
    00:00:00.000 : :Avant La Lumiere
    00:01:07.760 : :D'Entre Les Morts
    00:06:03.279 : :Paradis Inanime
    00:10:45.399 : :L'Ame-Stram-Gram
    00:17:02.360 : :Je M'Ennuie
    00:21:26.759 : :Outro Haka "Je M'Ennuie"
    00:24:09.000 : :Appelle Mon Numero
    00:29:28.279 : :XXL
    00:35:34.440 : :California
    00:40:33.800 : :Pourvu Qu'Elles Soient Douces
    00:45:32.320 : :Point De Suture
    00:53:22.400 : :Nous Souviendrons Nous
    00:59:39.800 : :Rever
    01:08:32.199 : :Laisse Le Vent Emporter Tout
    01:13:54.439 : :Ainsi Soit Je...
    01:20:03.680 : :Interlude "Avant Que L'Ombre..."
    01:25:35.000 : :Libertine
    01:31:08.399 : :Sans Contrefacon
    01:37:14.399 : :L'Instant X
    01:42:10.000 : :Fuck Them All
    01:47:02.600 : :Degeneration
    01:54:30.199 : :C'Est Dans L'Air
    02:02:35.199 : :Desenchantee
    02:13:17.000 : :Generique Fin

    Как скачать?
    1. Качаем UTorrent версии 2.0 и выше отсюда
    2. После установки, жмем на ссылку Скачать торрент.
    3. Открываем его через utorrent.
    4. Ждем пока подключатся участники.
    5. Качаем.


    Комментарии о Mylene Farmer: Stade de France
    Добавлять комментарии могут только зарегистрированные пользователи

    Зарегистрироваться или Войти


    Ближайшее в кино
    • МУЛЬТ в кино. Выпуск №77. Команда мечты дата выхода 23 июня 2018МУЛЬТ в кино. Выпуск №77. Команда мечты
      Дата выхода: 23 июня 2018
    • 1162775|Кто украл Banksy|25 июня 2018|200|300Кто украл Banksy
      Дата выхода: 25 июня 2018
    • 1031219|План побега 2|28 июня 2018|200|300План побега 2
      Дата выхода: 28 июня 2018
    • 938461|Убийца 2. Против всех|28 июня 2018|200|300Убийца 2. Против всех
      Дата выхода: 28 июня 2018
    • 912012|Распрекрасный принц|28 июня 2018|200|300Распрекрасный принц
      Дата выхода: 28 июня 2018
    • 1015040|Во власти стихии|28 июня 2018|200|300Во власти стихии
      Дата выхода: 28 июня 2018
    • 759874|Ты водишь!|28 июня 2018|200|300Ты водишь!
      Дата выхода: 28 июня 2018
    • 1077873|Книжный клуб|28 июня 2018|200|300Книжный клуб
      Дата выхода: 28 июня 2018
    • 1047708|Инсомния|28 июня 2018|200|300Инсомния
      Дата выхода: 28 июня 2018
    • 1026748|Джим Пуговка и машинист Лукас|28 июня 2018|200|300Джим Пуговка и машинист Лукас
      Дата выхода: 28 июня 2018
    • 1038941|Осторожно: Грамп!|28 июня 2018|200|300Осторожно: Грамп!
      Дата выхода: 28 июня 2018
    • 977767|50 весенних дней|28 июня 2018|200|30050 весенних дней
      Дата выхода: 28 июня 2018
    • 1162806|Идеальный муж|4 июля 2018|200|300Идеальный муж
      Дата выхода: 4 июля 2018
    • 935940|Человек-муравей и Оса|5 июля 2018|200|300Человек-муравей и Оса
      Дата выхода: 5 июля 2018
    • 977435|Невидимка|5 июля 2018|200|300Невидимка
      Дата выхода: 5 июля 2018
    Вверх