• Игры для PS4
  • Игры для PS3
  • Игры для XBOX360
  • Игры для PC
  • Игры для PS2
  • Игры для PSP
  • Для телефонов
  • Музыка
  • Книги/Журналы
  • Обои
  •  
    Опрос
    Удобен ли сайт в использовании?
      0
    • Очень удобен, все понятно1,1,false,300,full
    • Удобен1,2,false,300,full
    • Средне1,3,false,300,full
    • Неудобен, трудно ориентироваться1,4,false,300,full
    • Совсем неудобен1,5,false,300,full
    Статистика
    Загрузка...
    Первый мститель: Дилогия / Captain America: Dilogy | BDRip-AVC
    Статус  Проверено
    В закладки
    Модератор: Max

    Первый мститель: Дилогия / Captain America: Dilogy | BDRip-AVC [Фильмы 2011-2014] скачать торрентом/torrent бесплатно

    Год выхода
    Язык
    Закачал
    Аноним | 26 июня 2015 в 18ч 32м 10с
    Раздел
    Отзывов
    0
    Раздают: 1 Качают: 0 Скачали: 1 Размер: 7.91 GB
    Инфо о раздаче | Благодарности |
    0/5
    0
    0 5 0
    Поддержи нас — расскажи друзьям!
    Orbitum
    Новый интернет-браузер Быстрее загружает сайты Экономит интернет—трафик Меняет оформление страницы ВК Блокирует всю рекламу на сайтах Загружает торренты как

    µTorrent

    клиент
    Объеденяет все твои чаты из соц. сетей в один Проигрывает твою музыку не заходя во ВКонтакте
    Скачать и многое другое... Подробности на сайте производителя
    Первый мститель

    [img]http://i71.fastpic.ru/big/2015/0626/ba/f2bd17142cf89538094055f3603dbaba.png[/img]

    Название: Первый мститель
    Оригинальное название: Captain America: The First Avenger
    Год выпуска: 2011
    Страна: США
    Жанр: фантастика, боевик, приключения
    Продолжительность: 02:04:11
    Перевод: Дубляж
    Субтитры: русские (Форсированные), русские (Полные), английские (Полные)

    Режиссер: Джо Джонстон / Joe Johnston

    В ролях: Крис Эванс (Captain America / Steve Rogers), Хейли Этвелл (Peggy Carter), Томми Ли Джонс (Colonel Chester Phillips), Хьюго Уивинг (Johann Schmidt / Red Skull), Доминик Купер (Howard Stark), Нил МакДонаф (Timothy «Dum Dum» Dugan), Дерек Люк (Gabe Jones), Стэнли Туччи (Dr. Abraham Erskine), Себастьян Стэн (James Buchanan «Bucky» Barnes), Тоби Джонс (Dr. Arnim Zola), Ричард Армитедж (Heinz Kruger), Сэмюэл Л. Джексон (Nick Fury)

    Описание:
    Стив Роджерс добровольно соглашается принять участие в эксперименте, который превратит его в суперсолдата, известного как Первый мститель. Роджерс вступает в вооруженные силы США вместе с Баки Барнсом и Пегги Картер, чтобы бороться с враждебной организацией ГИДРА, которой управляет безжалостный Красный Череп.

    Рейтинг


    imdb.com: 7.80 (370 900)
    MPAA: PG-13 - Детям до 13 лет просмотр не желателен

    Качество: BDRip-AVC 60fps
    Формат: MKV
    Видео кодек: AVC
    Аудио кодек:AC3
    Видео: AVC, 1024x424 (2.40:1), 3530 kbps, 59,940 fps, 0,136 bpp
    Аудио: русский / AC3 / 5.1 / 48 kHz / 640 kbps / 16 bit |Дубляж|
    Навигация по главам: есть

    [img]http://s020.radikal.ru/i721/1408/eb/d78339bcde70t.jpg[/img]

    [spoiler=MI]
    General
    Unique ID : 196079533329413247552993650003930191941 (0x93838B628557DB2A9A846764DC531845)
    Format : Matroska
    Format version : Version 4 / Version 2
    File size : 3.96 GiB
    Duration : 2h 15mn
    Overall bit rate : 4 175 Kbps
    Encoded date : UTC 2015-06-26 10:32:27
    Writing application : mkvmerge v7.9.0 ('Birds&#039:wink: 64bit
    Writing library : libebml v1.3.1 + libmatroska v1.4.2
    Attachment : Yes

    Video
    ID : 1
    Format : AVC
    Format/Info : Advanced Video Codec
    Format profile : High@L4.1
    Format settings, CABAC : Yes
    Format settings, ReFrames : 4 frames
    Codec ID : V_MPEG4/ISO/AVC
    Duration : 2h 15mn
    Bit rate : 3 530 Kbps
    Width : 1 024 pixels
    Height : 424 pixels
    Display aspect ratio : 2.40:1
    Frame rate : 59.940 fps
    Color space : YUV
    Chroma subsampling : 4:2:0
    Bit depth : 8 bits
    Scan type : Progressive
    Bits/(Pixel*Frame) : 0.136
    Stream size : 3.28 GiB (83%)
    Title : Tiberiumsun69
    Writing library : x264 core 146 r2538 121396c
    Encoding settings : cabac=1 / ref=4 / deblock=1:0:0 / analyse=0x3:0x113 / me=umh / subme=9 / psy=1 / psy_rd=1.00:0.10 / mixed_ref=1 / me_range=32 / chroma_me=1 / trellis=2 / 8x8dct=1 / cqm=0 / deadzone=21,11 / fast_pskip=0 / chroma_qp_offset=-3 / threads=12 / lookahead_threads=3 / sliced_threads=0 / nr=0 / decimate=1 / interlaced=0 / bluray_compat=0 / constrained_intra=0 / bframes=16 / b_pyramid=2 / b_adapt=2 / b_bias=0 / direct=3 / weightb=1 / open_gop=0 / weightp=2 / keyint=600 / keyint_min=59 / scenecut=40 / intra_refresh=0 / rc_lookahead=60 / rc=2pass / mbtree=1 / bitrate=3530 / ratetol=1.0 / qcomp=0.60 / qpmin=0 / qpmax=69 / qpstep=4 / cplxblur=20.0 / qblur=0.5 / vbv_maxrate=50000 / vbv_bufsize=62500 / nal_hrd=none / filler=0 / ip_ratio=1.40 / aq=1:1.00
    Language : English
    Default : Yes
    Forced : No

    Audio
    ID : 2
    Format : AC-3
    Format/Info : Audio Coding 3
    Mode extension : CM (complete main)
    Codec ID : A_AC3
    Duration : 2h 15mn
    Bit rate mode : Constant
    Bit rate : 640 Kbps
    Channel(s) : 6 channels
    Channel positions : Front: L C R, Side: L R, LFE
    Sampling rate : 48.0 KHz
    Bit depth : 16 bits
    Compression mode : Lossy
    Stream size : 622 MiB (15%)
    Title : Дубляж
    Language : Russian
    Default : Yes
    Forced : No

    Text #1
    ID : 3
    Format : UTF-8
    Codec ID : S_TEXT/UTF8
    Codec ID/Info : UTF-8 Plain Text
    Title : Форсированные
    Language : Russian
    Default : Yes
    Forced : No

    Text #2
    ID : 4
    Format : UTF-8
    Codec ID : S_TEXT/UTF8
    Codec ID/Info : UTF-8 Plain Text
    Title : Полные
    Language : Russian
    Default : No
    Forced : No

    Text #3
    ID : 5
    Format : UTF-8
    Codec ID : S_TEXT/UTF8
    Codec ID/Info : UTF-8 Plain Text
    Title : Полные
    Language : English
    Default : No
    Forced : No

    Menu
    00:00:00.000 : en:Chapter 1
    00:03:28.666 : en:Chapter 2
    00:13:31.727 : en:Chapter 3
    00:17:57.868 : en:Chapter 4
    00:22:25.301 : en:Chapter 5
    00:33:20.415 : en:Chapter 6
    00:41:27.276 : en:Chapter 7
    00:51:37.302 : en:Chapter 8
    00:58:23.958 : en:Chapter 9
    01:07:40.347 : en:Chapter 10
    01:16:22.202 : en:Chapter 11
    01:24:43.078 : en:Chapter 12
    01:32:17.698 : en:Chapter 13
    01:37:06.612 : en:Chapter 14
    01:49:13.088 : en:Chapter 15
    01:55:03.730 : en:Chapter 16
    02:01:11.055 : en:Chapter 17
    02:06:22.241 : en:Chapter 18


    Скриншоты
    [img]http://i72.fastpic.ru/big/2015/0626/32/3c478d2ed86ca8c846001ad2130af932.jpg[/img][img]http://i72.fastpic.ru/big/2015/0626/ad/d139f0393eb212aae421d64022c56ead.jpg[/img][img]http://i70.fastpic.ru/big/2015/0626/f9/5779df3fb7a2d61a2d323e49383981f9.jpg[/img][img]http://i72.fastpic.ru/big/2015/0626/f3/a22ad877d232b1f4b11c0fb71333d3f3.jpg[/img]



    Просьба к переливающим на другие сайты, в оформлении указывайте пожалуйста авторство группы [img]http://s020.radikal.ru/i700/1506/a2/daa1d5497b89.gif[/img]
    Еще похожие »

    Как скачать?
    1. Качаем UTorrent версии 2.0 и выше отсюда
    2. После установки, жмем на ссылку Скачать торрент.
    3. Открываем его через utorrent.
    4. Ждем пока подключатся участники.
    5. Качаем.


    Комментарии о Первый мститель: Дилогия / Captain America: Dilogy | BDRip-AVC
    Добавлять комментарии могут только зарегистрированные пользователи

    Зарегистрироваться или Войти


    Ближайшее в кино
    • Профессионал дата выхода 27 сентября 2018Профессионал
      Дата выхода: 27 сентября 2018
    • 650699|Человек, который убил Дон Кихота|27 сентября 2018|200|300Человек, который убил Дон Кихота
      Дата выхода: 27 сентября 2018
    • 1045777|Непрощенный|27 сентября 2018|200|300Непрощенный
      Дата выхода: 27 сентября 2018
    • 939411|Мотылек|27 сентября 2018|200|300Мотылек
      Дата выхода: 27 сентября 2018
    • 652531|Тайна дома с часами|27 сентября 2018|200|300Тайна дома с часами
      Дата выхода: 27 сентября 2018
    • 970196|Поиск|27 сентября 2018|200|300Поиск
      Дата выхода: 27 сентября 2018
    • 429363|Игрушки для взрослых|27 сентября 2018|200|300Игрушки для взрослых
      Дата выхода: 27 сентября 2018
    • 1049653|Сердце мира|27 сентября 2018|200|300Сердце мира
      Дата выхода: 27 сентября 2018
    • 794309|Букшоп|27 сентября 2018|200|300Букшоп
      Дата выхода: 27 сентября 2018
    • 1015929|3 дня с Роми Шнайдер|27 сентября 2018|200|3003 дня с Роми Шнайдер
      Дата выхода: 27 сентября 2018
    • 947047|Похитители носков|27 сентября 2018|200|300Похитители носков
      Дата выхода: 27 сентября 2018
    • 1115748|Руби и Повелитель воды|27 сентября 2018|200|300Руби и Повелитель воды
      Дата выхода: 27 сентября 2018
    • 983306|Нуреев: Его сцена – весь мир|29 сентября 2018|200|300Нуреев: Его сцена – весь мир
      Дата выхода: 29 сентября 2018
    • 463634|Веном|4 октября 2018|200|300Веном
      Дата выхода: 4 октября 2018
    • 998805|На районе|4 октября 2018|200|300На районе
      Дата выхода: 4 октября 2018
    Вверх