• Игры для PS4
  • Игры для PS3
  • Игры для XBOX360
  • Игры для PC
  • Игры для PS2
  • Игры для PSP
  • Для телефонов
  • Музыка
  • Книги / Журналы
  • Обои
  • Опрос
    Откуда Вы о нас узнали?
      0
    • От знакомых2,1,false,300,full
    • Из социальных сетей2,2,false,300,full
    • Из поисковых систем2,3,false,300,full
    • Другое2,4,false,300,full
    Статистика
    Всего онлайн -
    Гостей -
    Пользователей -
    Короли трекера
    Благодарности () Закрыть
    Информация о фильме
    Название: Хранитель луны
    Оригинальное название: Mune, le gardien de la lune
    Год выхода: 2014
    Жанр: мультфильм, приключения
    Режиссер: Александр Эбоян, Бенуа Филиппон
    Роли дублировали: Александр Ревва, Наталия Медведева, Василий Буткевич, Алексей Багдасаров, Илья Барабанов, Алексей Розин, Сергей Чихачев, Александр Вартанов, Артур Бесчастный, Григорий Калинин, Александр Новиков

    О фильме: «Он не спасет мир. Он спасет пять миров!»
    На диковинной планете, где смена дня и ночи осуществляется вручную, юного фавна Мьюна неожиданно избирают хранителем Луны. Но к своему ужасу, он почти сразу теряет ее! Воспользовавшись этим, царь подземного мира Некрос крадет и гасит Солнце. Теперь, чтобы спасти планету, Мьюн вместе с отважной девочкой из воска Глим и заносчивым Сохоном, хранителем Солнца, должны отправиться в удивительное и опасное путешествие.

    [img]http://imdb.snick.ru/ratefor/02/tt3858372.png[/img]

    Выпущено: Франция / Orange Studio, KinoLogy, Onyx Films
    Продолжительность: 01:21:14
    Перевод: Дублированное Чистый звук

    Файл
    Кодек: MPEG-4 AVC (MKV)
    Качество: WEBRip-AVC
    Видео: AVC, 1024x432, 2500 Kbps
    Звук: AC3, 448 kb/s (2 ch)
    Субтитры: нет

    [img]http://s017.radikal.ru/i426/1501/8a/bb832ab73505.gif[/img]
    MediaInfo
    General
    Unique ID : 8153392667518601071426554582214088760 (0x622494B866F66973760862D3E8B9838)
    Complete name : D:ДИСК�4.МУЛЬТФИЛЬМЫХранитель луны Mune, le gardien de la lune (2014)Mune, le gardien de la lune (2014) WEBRip-AVC.mkv
    Format : Matroska
    Format version : Version 4 / Version 2
    File size : 1.66 GiB
    Duration : 1h 21mn
    Overall bit rate mode : Variable
    Overall bit rate : 2 922 Kbps
    Writing application : XviD4PSP 7.0.176
    Writing library : Lavf56.25.101
    ENCODING_INFO : MATROSKA,WEBM > MKV / H264 > X264 CBR 2500kbps Custom / AC3 > COPY

    Video
    ID : 1
    Format : AVC
    Format/Info : Advanced Video Codec
    Format profile : High@L4.1
    Format settings, CABAC : Yes
    Format settings, ReFrames : 8 frames
    Format settings, GOP : M=6, N=7
    Codec ID : V_MPEG4/ISO/AVC
    Duration : 1h 21mn
    Bit rate mode : Variable
    Bit rate : 2 500 Kbps
    Width : 1 024 pixels
    Height : 432 pixels
    Display aspect ratio : 2.40:1
    Original display aspect ratio : 2.40:1
    Frame rate mode : Constant
    Frame rate : 30.000 fps
    Color space : YUV
    Chroma subsampling : 4:2:0
    Bit depth : 8 bits
    Scan type : Progressive
    Bits/(Pixel*Frame) : 0.188
    Stream size : 1.37 GiB (83%)
    Writing library : x264 core 148 r2597M e86f3a1
    Encoding settings : cabac=1 / ref=8 / deblock=1:-1:-1 / analyse=0x3:0x133 / me=umh / subme=8 / psy=1 / psy_rd=1.00:0.15 / mixed_ref=1 / me_range=16 / chroma_me=1 / trellis=2 / 8x8dct=1 / cqm=0 / deadzone=21,11 / fast_pskip=1 / chroma_qp_offset=-3 / threads=8 / lookahead_threads=1 / sliced_threads=0 / nr=0 / decimate=1 / interlaced=0 / bluray_compat=0 / constrained_intra=0 / bframes=6 / b_pyramid=2 / b_adapt=0 / b_bias=0 / direct=3 / weightb=1 / open_gop=0 / weightp=0 / keyint=7 / keyint_min=4 / scenecut=40 / intra_refresh=0 / rc_lookahead=36 / rc=cbr / mbtree=1 / bitrate=2500 / ratetol=1.0 / qcomp=0.60 / qpmin=0 / qpmax=69 / qpstep=4 / vbv_maxrate=2500 / vbv_bufsize=3000 / nal_hrd=vbr / filler=0 / ip_ratio=1.40 / aq=1:1.00
    Language : English
    Default : Yes
    Forced : No

    Audio
    ID : 2
    Format : AC-3
    Format/Info : Audio Coding 3
    Mode extension : CM (complete main)
    Format settings, Endianness : Big
    Codec ID : A_AC3
    Duration : 1h 21mn
    Bit rate mode : Constant
    Bit rate : 448 Kbps
    Channel(s) : 2 channels
    Channel positions : Front: L R
    Sampling rate : 48.0 KHz
    Bit depth : 32 bits
    Compression mode : Lossy
    Stream size : 260 MiB (15%)
    Language : Russian
    Default : Yes
    Forced : No
    Свернуть


    Скриншоты
    [screen]http://2.firepic.org/2/images/2015-10/13/0ol5m7g5i4h7.png[/screen][screen]http://2.firepic.org/2/images/2015-10/13/dx9atlgobrnu.png[/screen][screen]http://2.firepic.org/2/images/2015-10/13/tv956jpd1iel.png[/screen][screen]http://2.firepic.org/2/images/2015-10/13/mt76303iwyjk.png[/screen][screen]http://2.firepic.org/2/images/2015-10/13/vo4kw1cm6yri.png[/screen][screen]http://2.firepic.org/2/images/2015-10/13/9rt3pnwg0cb9.png[/screen]Свернуть
    Похожие раздачи Искать похожие
    Инструкция по скачиванию
     1  Качаем uTorrent версии 2.0 и выше
     2  После установки, жмем выше под постером на ссылку Скачать [MediaGet] или Скачать .torrent
     3  Открываем скачанный файл через соответствующий клиент: MediaGet или uTorrent
     4  Ждем пока подключатся участники
     5  Качаем
    Комментарии о  Хранитель луны / Mune, le gardien de la lune | WEBRip-AVC 
    Ближайшее в кино
    Вверх