• Игры для PS4
  • Игры для PS3
  • Игры для XBOX360
  • Игры для PC
  • Игры для PS2
  • Игры для PSP
  • Для телефонов
  • Музыка
  • Книги/Журналы
  • Обои
  •  
    Опрос
    Откуда Вы о нас узнали?
      0
    • От знакомых2,1,false,300,full
    • Из социальных сетей2,2,false,300,full
    • Из поисковых систем2,3,false,300,full
    • Другое2,4,false,300,full
    Статистика
    Загрузка...
    Тупик / Dead End | DVDRip-AVC
    Статус  Проверено
    В закладки
    Модератор: Max

    Тупик / Dead End | DVDRip-AVC [Фильмы 2003] скачать торрентом/torrent бесплатно

    Год выхода
    Язык
    Закачал
    Max | 20 декабря 2015 в 13ч 50м 08с
    Раздел
    Отзывов
    0
    Раздают: 3 Качают: 0 Скачали: 5 Размер: 1.45 GB
    Инфо о раздаче | Благодарности |
    0/5
    0
    0 5 0
    Поддержи нас — расскажи друзьям!
    Orbitum
    Новый интернет-браузер Быстрее загружает сайты Экономит интернет—трафик Меняет оформление страницы ВК Блокирует всю рекламу на сайтах Загружает торренты как

    µTorrent

    клиент
    Объеденяет все твои чаты из соц. сетей в один Проигрывает твою музыку не заходя во ВКонтакте
    Скачать и многое другое... Подробности на сайте производителя
    Информация о фильме
    Название: Тупик
    Оригинальное название: Dead End
    Год выхода: 2003
    Жанр: Ужасы, Триллер, Комедия, Детектив
    Режиссер: Жан-Баптист Андреа, Фабрис Канепа
    В ролях: Рэй Уайз, Лин Шэй, Мик Кэйн, Александра Холден, Билли Эшер, Эмбер Смит, Шарон Мэдден, Стив Валентайн, Джимми Ф. Скэггз.

    О фильме:
    Все последние 20 лет Фрэнк отвозил семью на Рождество к своей теще и всегда ездил одной и той же дорогой. На это раз он решил сократить путь, проехав через лес. И совершенно напрасно…

    По лесу бродит таинственная женщина в белом, сеющая смерть. Ужасный черный автомобиль с невидимым шофером увозит жертвы в ночную тьму. На каждом дорожном знаке указан пункт назначения, которого невозможно достичь. Те же, кому посчастливится выжить, уже никогда и ничего не смогут рассказать о том, что произошло с ними в эту Рождественскую ночь…

      


    Страна: США, Франция
    Студия: Captain Movies, Sagittaire Films
    Продолжительность: 01:19:54
    Перевод: Профессиональный многоголосый

    Файл
    Кодек: h.264
    Качество: DVDRip-AVC
    Видео: MPEG-4, 720x552 @1024x552, 25.000 fps ~1833 kbps
    Звук:
    1) 48 KHz, AC3, 6 ch ~384Kbps - MVO [Екатеринбург Арт]
    2) 48 KHz, AC3, 6 ch ~384Kbps - Original
    Субтитры: Русские, английские

    Media Info
    General
    Unique ID : 228178209652970792833266524654522812813 (0xABA986504BFD8D82A3B34874721B498D)
    Complete name : E:VideoТупик (2003).mkv
    Format : Matroska
    Format version : Version 4 / Version 2
    File size : 1.45 GiB
    Duration : 1h 19mn
    Overall bit rate : 2 607 Kbps
    Movie name : Dead End (2003)
    Encoded date : UTC
    Writing application : mkvmerge v8.4.0 ('A better way to fly&#039:wink: 64bit
    Writing library : Lavf55.12.0
    Attachements : Cover.jpg

    Video
    ID : 1
    Format : AVC
    Format/Info : Advanced Video Codec
    Format profile : High@L4.1
    Format settings, CABAC : Yes
    Format settings, ReFrames : 9 frames
    Codec ID : V_MPEG4/ISO/AVC
    Duration : 1h 19mn
    Bit rate : 1 833 Kbps
    Width : 720 pixels
    Height : 552 pixels
    Display aspect ratio : 1.85:1
    Frame rate mode : Constant
    Frame rate : 25.000 fps
    Color space : YUV
    Chroma subsampling : 4:2:0
    Bit depth : 8 bits
    Scan type : Progressive
    Bits/(Pixel*Frame) : 0.184
    Stream size : 1 021 MiB (69%)
    Title : MPEG-4, 720x552 @1024x552, 25.000 fps ~1833 kbps
    Writing library : x264 core 142 r2479 dd79a61
    Encoding settings : cabac=1 / ref=9 / deblock=1:-3:-3 / analyse=0x3:0x133 / me=umh / subme=11 / psy=1 / psy_rd=1.00:0.15 / mixed_ref=1 / me_range=24 / chroma_me=1 / trellis=2 / 8x8dct=1 / cqm=0 / deadzone=21,11 / fast_pskip=0 / chroma_qp_offset=-3 / threads=6 / lookahead_threads=1 / sliced_threads=0 / nr=0 / decimate=1 / interlaced=0 / bluray_compat=0 / constrained_intra=0 / bframes=16 / b_pyramid=2 / b_adapt=2 / b_bias=0 / direct=3 / weightb=1 / open_gop=0 / weightp=2 / keyint=250 / keyint_min=25 / scenecut=40 / intra_refresh=0 / rc_lookahead=60 / rc=2pass / mbtree=0 / bitrate=1833 / ratetol=1.0 / qcomp=0.60 / qpmin=0 / qpmax=69 / qpstep=4 / cplxblur=20.0 / qblur=0.5 / vbv_maxrate=62500 / vbv_bufsize=78125 / nal_hrd=none / filler=0 / ip_ratio=1.40 / pb_ratio=1.30 / aq=1:1.00
    Language : English
    Default : Yes
    Forced : No
    Color range : Limited
    Color primaries : BT.601 PAL
    Transfer characteristics : BT.709
    Matrix coefficients : BT.601
    DURATION : 01:19:54.080000000
    NUMBER_OF_FRAMES : 119852
    NUMBER_OF_BYTES : 1097911638
    _STATISTICS_WRITING_APP : mkvmerge v8.4.0 ('A better way to fly&#039:wink: 64bit
    _STATISTICS_WRITING_DATE_UT : 2015-12-20 07:11:00
    _STATISTICS_TAGS : BPS DURATION NUMBER_OF_FRAMES NUMBER_OF_BYTES

    Audio #1
    ID : 2
    Format : AC-3
    Format/Info : Audio Coding 3
    Mode extension : CM (complete main)
    Format settings, Endianness : Big
    Codec ID : A_AC3
    Duration : 1h 19mn
    Bit rate mode : Constant
    Bit rate : 384 Kbps
    Channel(s) : 6 channels
    Channel positions : Front: L C R, Side: L R, LFE
    Sampling rate : 48.0 KHz
    Compression mode : Lossy
    Stream size : 219 MiB (15%)
    Title : 48 KHz, AC3, 6 ch ~384Kbps - MVO [Екатеринбург Арт]
    Language : Russian
    Default : Yes
    Forced : No
    DURATION : 01:19:54.016000000
    NUMBER_OF_FRAMES : 149813
    NUMBER_OF_BYTES : 230112768
    _STATISTICS_WRITING_APP : mkvmerge v8.4.0 ('A better way to fly&#039:wink: 64bit
    _STATISTICS_WRITING_DATE_UT : 2015-12-20 07:11:00
    _STATISTICS_TAGS : BPS DURATION NUMBER_OF_FRAMES NUMBER_OF_BYTES

    Audio #2
    ID : 3
    Format : AC-3
    Format/Info : Audio Coding 3
    Mode extension : CM (complete main)
    Format settings, Endianness : Big
    Codec ID : A_AC3
    Duration : 1h 19mn
    Bit rate mode : Constant
    Bit rate : 384 Kbps
    Channel(s) : 6 channels
    Channel positions : Front: L C R, Side: L R, LFE
    Sampling rate : 48.0 KHz
    Compression mode : Lossy
    Stream size : 219 MiB (15%)
    Title : 48 KHz, AC3, 6 ch ~384Kbps - Original
    Language : English
    Default : No
    Forced : No
    DURATION : 01:19:54.016000000
    NUMBER_OF_FRAMES : 149813
    NUMBER_OF_BYTES : 230112768
    _STATISTICS_WRITING_APP : mkvmerge v8.4.0 ('A better way to fly&#039:wink: 64bit
    _STATISTICS_WRITING_DATE_UT : 2015-12-20 07:11:00
    _STATISTICS_TAGS : BPS DURATION NUMBER_OF_FRAMES NUMBER_OF_BYTES

    Text #1
    ID : 4
    Format : VobSub
    Muxing mode : zlib
    Codec ID : S_VOBSUB
    Codec ID/Info : Picture based subtitle format used on DVDs
    Language : Russian
    Default : No
    Forced : No
    DURATION : 01:16:56.477000000
    NUMBER_OF_FRAMES : 1218
    NUMBER_OF_BYTES : 977758
    _STATISTICS_WRITING_APP : mkvmerge v8.4.0 ('A better way to fly&#039:wink: 64bit
    _STATISTICS_WRITING_DATE_UT : 2015-12-20 07:11:00
    _STATISTICS_TAGS : BPS DURATION NUMBER_OF_FRAMES NUMBER_OF_BYTES

    Text #2
    ID : 5
    Format : VobSub
    Muxing mode : zlib
    Codec ID : S_VOBSUB
    Codec ID/Info : Picture based subtitle format used on DVDs
    Language : English
    Default : No
    Forced : No
    DURATION : 01:19:17.431000000
    NUMBER_OF_FRAMES : 1130
    NUMBER_OF_BYTES : 1540791
    _STATISTICS_WRITING_APP : mkvmerge v8.4.0 ('A better way to fly&#039:wink: 64bit
    _STATISTICS_WRITING_DATE_UT : 2015-12-20 07:11:00
    _STATISTICS_TAGS : BPS DURATION NUMBER_OF_FRAMES NUMBER_OF_BYTES

    Menu
    00:00:00.000 : :Chapter 1
    00:03:50.200 : :Chapter 2
    00:07:59.000 : :Chapter 3
    00:10:19.000 : :Chapter 4
    00:15:54.200 : :Chapter 5
    00:21:14.040 : :Chapter 6
    00:25:49.400 : :Chapter 7
    00:31:17.400 : :Chapter 8
    00:36:11.160 : :Chapter 9
    00:41:03.960 : :Chapter 10
    00:44:46.360 : :Chapter 11
    00:48:59.000 : :Chapter 12
    00:52:18.040 : :Chapter 13
    00:57:40.440 : :Chapter 14
    01:04:09.400 : :Chapter 15
    01:09:50.840 : :Chapter 16
    01:13:42.040 : :Chapter 17
    01:17:05.720 : :Chapter 18


    Скриншоты
    [img]http://firepic.org/images/2015-12/20/v27bei8bedut.png[/img][img]http://firepic.org/images/2015-12/20/vebryiu7ai3y.png[/img][img]http://firepic.org/images/2015-12/20/pmg9sftkcvok.png[/img][img]http://firepic.org/images/2015-12/20/tpwa9if014ik.png[/img][img]http://firepic.org/images/2015-12/20/1jt0biopm8u7.png[/img][img]http://firepic.org/images/2015-12/20/hxrw8bcnxcl7.png[/img][img]http://firepic.org/images/2015-12/20/hlwbu824q16y.png[/img][img]http://firepic.org/images/2015-12/20/fjdrgyonl60j.png[/img]
    Еще похожие »

    Как скачать?
    1. Качаем UTorrent версии 2.0 и выше отсюда
    2. После установки, жмем на ссылку Скачать торрент.
    3. Открываем его через utorrent.
    4. Ждем пока подключатся участники.
    5. Качаем.


    Комментарии о Тупик / Dead End | DVDRip-AVC
    Добавлять комментарии могут только зарегистрированные пользователи

    Зарегистрироваться или Войти


    Ближайшее в кино
    • Примадонна дата выхода 18 октября 2018Примадонна
      Дата выхода: 18 октября 2018
    • 885317|Ученик чудовища|18 октября 2018|200|300Ученик чудовища
      Дата выхода: 18 октября 2018
    • 472369|Хэллоуин|18 октября 2018|200|300Хэллоуин
      Дата выхода: 18 октября 2018
    • 1005852|Дикая жизнь|18 октября 2018|200|300Дикая жизнь
      Дата выхода: 18 октября 2018
    • 696499|Галвестон|18 октября 2018|200|300Галвестон
      Дата выхода: 18 октября 2018
    • 1111886|Лукас|18 октября 2018|200|300Лукас
      Дата выхода: 18 октября 2018
    • 1045555|Вечная жизнь Александра Христофорова|18 октября 2018|200|300Вечная жизнь Александра Христофорова
      Дата выхода: 18 октября 2018
    • 1112943|Шестой пост|18 октября 2018|200|300Шестой пост
      Дата выхода: 18 октября 2018
    • 1044626|Тайна магазина игрушек|18 октября 2018|200|300Тайна магазина игрушек
      Дата выхода: 18 октября 2018
    • 629086|Лягушонок Риббит|18 октября 2018|200|300Лягушонок Риббит
      Дата выхода: 18 октября 2018
    • 991817|Закат|18 октября 2018|200|300Закат
      Дата выхода: 18 октября 2018
    • 1020860|Безупречная жизнь|18 октября 2018|200|300Безупречная жизнь
      Дата выхода: 18 октября 2018
    • 968603|Зимние братья|18 октября 2018|200|300Зимние братья
      Дата выхода: 18 октября 2018
    • 1008554|Слоны могут играть в футбол|18 октября 2018|200|300Слоны могут играть в футбол
      Дата выхода: 18 октября 2018
    • 939290|Прогулка по Риму|18 октября 2018|200|300Прогулка по Риму
      Дата выхода: 18 октября 2018
    Вверх