• Игры для PS4
  • Игры для PS3
  • Игры для XBOX360
  • Игры для PC
  • Игры для PS2
  • Игры для PSP
  • Для телефонов
  • Музыка
  • Книги/Журналы
  • Обои
  •  
    Опрос
    Откуда Вы о нас узнали?
      0
    • От знакомых2,1,false,300,full
    • Из социальных сетей2,2,false,300,full
    • Из поисковых систем2,3,false,300,full
    • Другое2,4,false,300,full
    Статистика
    Загрузка...
    Цари и пророки / Of Kings and Prophets [Сезон 01 | 02 серия из 13] | WEB-DLRip
    Статус  Проверено
    В закладки
    Модератор: Max

    Цари и пророки / Of Kings and Prophets [Сезон 01 | 02 серия из 13] | WEB-DLRip [Сериалы 2016] скачать торрентом/torrent бесплатно

    Год выхода
    Категории
    Язык
    Закачал
    Max | 14 апреля 2016 в 14ч 32м 22с
    Раздел
    Отзывов
    0
    Раздают: 0 Качают: 0 Скачали: 0 Размер: 1.45 GB
    Инфо о раздаче | Благодарности |
    0/5
    0
    0 5 0
    Поддержи нас — расскажи друзьям!
    Orbitum
    Новый интернет-браузер Быстрее загружает сайты Экономит интернет—трафик Меняет оформление страницы ВК Блокирует всю рекламу на сайтах Загружает торренты как

    µTorrent

    клиент
    Объеденяет все твои чаты из соц. сетей в один Проигрывает твою музыку не заходя во ВКонтакте
    Скачать и многое другое... Подробности на сайте производителя
    Страна: США
    Жанр: драма
    Год выпуска: 2015

    Продолжительность: 00:43:08

    Перевод: Профессиональный многоголосый (Adiós Muchachos Studio)

    Режиссер: Дуан Кларк / Duane Clark, Джеффри Начманофф / Jeffrey Nachmanoff

    В ролях: Джеймс Флойд, Мохаммад Бакри, Марк Иванир, Симона Кэссел, Алекс МакГрегор, Мэйси Ричардсон-Селлерс, Оливер Рикс, Джо Ваз, Бретт Лоуренс Уильямс, Рэй Уинстон и др.
    Джо Ваз (Amos)

    Описание: Библейская драма, рассказывающая о закаленном в боях царе, влиятельном пророке и находчивом молодом пастухе.




    Качество: WEB-DLRip | WEB-DL 720p
    Контейнер: AVI
    Видео: XviD, 704x400 (16:9), 2005 kbps, 23,976 fps, 0,297 bpp
    Аудио: AC3 / 5.1 / 48 kHz / 384 kbps / 16 bit


    Скриншоты
    [img]http://i75.fastpic.ru/big/2016/0314/09/e33470a85edb88a1e2883c44c4645509.png[/img][img]http://i75.fastpic.ru/big/2016/0314/3e/6a5ff860462b85fd5c33196263a7423e.png[/img][img]http://i76.fastpic.ru/big/2016/0314/be/0e8177196e252e019d9dec3886bc2cbe.png[/img][img]http://i74.fastpic.ru/big/2016/0314/c7/d97e1415dc04773abdc0ee1baf8245c7.png[/img][img]http://i74.fastpic.ru/big/2016/0314/8e/a53b0622758826bfb2b11fffb47d228e.png[/img]


    Media Info

    General
    Complete name                            : D:filmOf.Kings.and.Prophets.S01.WEBDLRip.by.NewTeamOf.Kings.and.Prophets.S01E01.WEBDLRip.by.NewTeam.avi
    Format                                   : AVI
    Format/Info                              : Audio Video Interleave
    File size                                : 740 MiB
    Duration                                 : 43mn 8s
    Overall bit rate                         : 2 399 Kbps
    Writing application                      : VirtualDubMod 1.5.10.3 | www.virtualdub-fr.org || (build 2550/release)
    Writing library                          : VirtualDubMod build 2550/release

    Video
    ID                                       : 0
    Format                                   : MPEG-4 Visual
    Format profile                           : Advanced Simple@L5
    Format settings, BVOP                    : 1
    Format settings, QPel                    : No
    Format settings, GMC                     : No warppoints
    Format settings, Matrix                  : Custom
    Codec ID                                 : XVID
    Codec ID/Hint                            : XviD
    Duration                                 : 43mn 8s
    Bit rate                                 : 2 005 Kbps
    Width                                    : 704 pixels
    Height                                   : 400 pixels
    Display aspect ratio                     : 16:9
    Frame rate                               : 23.976 fps
    Color space                              : YUV
    Chroma subsampling                       : 4:2:0
    Bit depth                                : 8 bits
    Scan type                                : Progressive
    Compression mode                         : Lossy
    Bits/(Pixel*Frame)                       : 0.297
    Stream size                              : 619 MiB (84%)
    Writing library                          : XviD 73

    Audio
    ID                                       : 1
    Format                                   : AC-3
    Format/Info                              : Audio Coding 3
    Mode extension                           : CM (complete main)
    Codec ID                                 : 2000
    Duration                                 : 43mn 8s
    Bit rate mode                            : Constant
    Bit rate                                 : 384 Kbps
    Channel(s)                               : 6 channels
    Channel positions                        : Front: L C R, Side: L R, LFE
    Sampling rate                            : 48.0 KHz
    Bit depth                                : 16 bits
    Compression mode                         : Lossy
    Stream size                              : 118 MiB (16%)
    Alignment                                : Split accross interleaves
    Interleave, duration                     : 42 ms (1.00 video frame)
    Interleave, preload duration             : 500 ms

    Еще похожие »

    Как скачать?
    1. Качаем UTorrent версии 2.0 и выше отсюда
    2. После установки, жмем на ссылку Скачать торрент.
    3. Открываем его через utorrent.
    4. Ждем пока подключатся участники.
    5. Качаем.


    Комментарии о Цари и пророки / Of Kings and Prophets [Сезон 01 | 02 серия из 13] | WEB-DLRip
    Добавлять комментарии могут только зарегистрированные пользователи

    Зарегистрироваться или Войти


    Ближайшее в кино
    • Профессионал дата выхода 27 сентября 2018Профессионал
      Дата выхода: 27 сентября 2018
    • 650699|Человек, который убил Дон Кихота|27 сентября 2018|200|300Человек, который убил Дон Кихота
      Дата выхода: 27 сентября 2018
    • 1045777|Непрощенный|27 сентября 2018|200|300Непрощенный
      Дата выхода: 27 сентября 2018
    • 939411|Мотылек|27 сентября 2018|200|300Мотылек
      Дата выхода: 27 сентября 2018
    • 652531|Тайна дома с часами|27 сентября 2018|200|300Тайна дома с часами
      Дата выхода: 27 сентября 2018
    • 970196|Поиск|27 сентября 2018|200|300Поиск
      Дата выхода: 27 сентября 2018
    • 429363|Игрушки для взрослых|27 сентября 2018|200|300Игрушки для взрослых
      Дата выхода: 27 сентября 2018
    • 1049653|Сердце мира|27 сентября 2018|200|300Сердце мира
      Дата выхода: 27 сентября 2018
    • 794309|Букшоп|27 сентября 2018|200|300Букшоп
      Дата выхода: 27 сентября 2018
    • 1015929|3 дня с Роми Шнайдер|27 сентября 2018|200|3003 дня с Роми Шнайдер
      Дата выхода: 27 сентября 2018
    • 947047|Похитители носков|27 сентября 2018|200|300Похитители носков
      Дата выхода: 27 сентября 2018
    • 1115748|Руби и Повелитель воды|27 сентября 2018|200|300Руби и Повелитель воды
      Дата выхода: 27 сентября 2018
    • 983306|Нуреев: Его сцена – весь мир|29 сентября 2018|200|300Нуреев: Его сцена – весь мир
      Дата выхода: 29 сентября 2018
    • 463634|Веном|4 октября 2018|200|300Веном
      Дата выхода: 4 октября 2018
    • 998805|На районе|4 октября 2018|200|300На районе
      Дата выхода: 4 октября 2018
    Вверх