• Игры для PS4
  • Игры для PS3
  • Игры для XBOX360
  • Игры для PC
  • Игры для PS2
  • Игры для PSP
  • Для телефонов
  • Музыка
  • Книги / Журналы
  • Обои
  • Опрос
    Удобен ли сайт в использовании?
      0
    • Очень удобен, все понятно1,1,false,300,full
    • Удобен1,2,false,300,full
    • Средне1,3,false,300,full
    • Неудобен, трудно ориентироваться1,4,false,300,full
    • Совсем неудобен1,5,false,300,full
    Статистика
    Всего онлайн -
    Гостей -
    Пользователей -
    Короли трекера
    Благодарности () Закрыть
    Оригинальное название: Reflections in a Golden Eye
    Год выхода: 1967
    Страна: США
    Студия: Warner Brothers/Seven Arts
    Продолжительность: 01:48:55
    Жанр: триллер, драма, мелодрама, ...
    Режиссер: Джон Хьюстон
    В ролях: Элизабет Тейлор, Марлон Брандо, Брайан Кит, Джули Харрис, Зорро Дэвид, Гордон Митчелл, Ирвин Дуган, Фэй Спаркс, Роберт Форстер, Эд Мецгер, ...

    Перевод:
    - Профессиональный (многоголосный, закадровый)
    - Авторский (одноголосый, закадровый) Либергал Григорий Александрович

    О фильме: Обитатели крохотного военного городка в штате Джорджия конца 1940-х годов, они все напоминают одновременно и смертельно опасных зверей, и загнанную добычу. Их судьбы давно рухнули, а за поддерживающимся из последних сил распорядком дня скрываются вытесненные мании и пороки. Майор Пендерстон еще изображает из себя крутого мачо с увядшими бицепсами, но на деле страшится своего латентного гомосексуализма и давно уже ни в грош не ставящей его жены.
    Она, в свою очередь, изменяет ему с подполковником, который предпочитает не замечать, как бесповоротно сходит с ума его нежная истеричка-жена, любительница классической музыки. Даже слуга-филиппинец, единственный близкий к ней человек, не может спасти ее от жуткой мазохистской расправы над самой собой. И за всеми наблюдает странный солдат, вуайер, девственник, то ли ангел, способный спасти хоть кого-то, то ли демон, безвозвратно губящий всех.…



    Кодек: x264
    Качество: BDRip 1080p
    Видео: 1916x796, 11000 kbps, 23,976 fps
    Аудио #1: AC-3, 2 ch, 192 kbps (Rus) - MVO
    Аудио #2: AC-3, 2 ch, 192 kbps (Rus) - AVO Либергал Григорий Александрович
    Аудио #3: DTS, 2 ch, 1509 kbps (Eng)
    Субтитры: Английские
    Спасибо за исходник

    MediaInfo

    x264 [info]: frame I:833   Avg QP:15.26  size:192908
    x264 [info]: frame P:30374 Avg QP:17.50  size:102044
    x264 [info]: frame B:125477 Avg QP:19.33  size: 45617
    x264 [info]: consecutive B-frames:  1.2%  1.4%  3.4% 11.3% 15.3% 60.6%  5.5%  0.6%  0.4%  0.1%  0.1%  0.1%  0.1%

    Общее
    Уникальный идентификатор : 216044407497909706409483925231843812098 (0xA288A3ADDE28E04296F318CC6EEA2302)
    Полное имя : Блики в золотом глазу (Reflections in a Golden Eye) 1967 BDRip 1080p.mkv
    Формат : Matroska
    Версия формата : Version 2
    Размер файла : 9,81 Гбайт
    Продолжительность : 1 ч. 48 м.
    Общий поток : 12,9 Мбит/сек
    Дата кодирования : UTC 2016-05-01 17:28:35
    Программа кодирования : mkvmerge v4.0.0 ("The Stars were mine") сборка от Jun 6 2010 16:18:42
    Библиотека кодирования : libebml v1.0.0 + libmatroska v1.0.0

    Видео
    Идентификатор : 1
    Формат : AVC
    Формат/Информация : Advanced Video Codec
    Профиль формата : High@L4.1
    Параметр CABAC формата : Да
    Параметр ReFrames формата : 5 кадров
    Идентификатор кодека : V_MPEG4/ISO/AVC
    Продолжительность : 1 ч. 48 м.
    Битрейт : 11,0 Мбит/сек
    Ширина : 1916 пикселей
    Высота : 796 пикселей
    Соотношение сторон : 2,40:1
    Режим частоты кадров : Постоянный
    Частота кадров : 23,976 кадра/сек
    Цветовое пространство : YUV
    Субдискретизация насыщенности : 4:2:0
    Битовая глубина : 8 бит
    Тип развёртки : Прогрессивная
    Бит/(Пиксели*Кадры) : 0.301
    Размер потока : 8,17 Гбайт (83%)
    Библиотека кодирования : x264 core 146 r2538 121396c
    Настройки программы : cabac=1 / ref=5 / deblock=1:-3:-3 / analyse=0x3:0x133 / me=umh / subme=11 / psy=1 / psy_rd=1.08:0.08 / mixed_ref=1 / me_range=32 / chroma_me=1 / trellis=2 / 8x8dct=1 / cqm=0 / deadzone=21,11 / fast_pskip=0 / chroma_qp_offset=-3 / threads=12 / lookahead_threads=2 / sliced_threads=0 / nr=0 / decimate=0 / interlaced=0 / bluray_compat=0 / constrained_intra=0 / bframes=12 / b_pyramid=2 / b_adapt=2 / b_bias=0 / direct=3 / weightb=1 / open_gop=0 / weightp=2 / keyint=240 / keyint_min=23 / scenecut=40 / intra_refresh=0 / rc=2pass / mbtree=0 / bitrate=11000 / ratetol=1.0 / qcomp=0.60 / qpmin=0 / qpmax=69 / qpstep=4 / cplxblur=20.0 / qblur=0.5 / ip_ratio=1.40 / pb_ratio=1.30 / aq=1:0.80
    Язык : English
    Default : Нет
    Forced : Нет

    Аудио #1
    Идентификатор : 2
    Формат : AC-3
    Формат/Информация : Audio Coding 3
    Расширение режима : CM (complete main)
    Параметр Endianness формата : Big
    Идентификатор кодека : A_AC3
    Продолжительность : 1 ч. 48 м.
    Вид битрейта : Постоянный
    Битрейт : 192 Кбит/сек
    Каналы : 2 канала
    Расположение каналов : Front: L R
    Частота : 48,0 КГц
    Метод сжатия : С потерями
    Размер потока : 150 Мбайт (1%)
    Заголовок : MVO
    Язык : Russian
    Default : Нет
    Forced : Нет

    Аудио #2
    Идентификатор : 3
    Формат : AC-3
    Формат/Информация : Audio Coding 3
    Расширение режима : CM (complete main)
    Параметр Endianness формата : Big
    Идентификатор кодека : A_AC3
    Продолжительность : 1 ч. 48 м.
    Вид битрейта : Постоянный
    Битрейт : 192 Кбит/сек
    Каналы : 2 канала
    Расположение каналов : Front: L R
    Частота : 48,0 КГц
    Метод сжатия : С потерями
    Размер потока : 150 Мбайт (1%)
    Заголовок : AVO Либергал Григорий Александрович
    Язык : Russian
    Default : Нет
    Forced : Нет

    Аудио #3
    Идентификатор : 4
    Формат : DTS
    Формат/Информация : Digital Theater Systems
    Режим : 16
    Параметр Endianness формата : Big
    Идентификатор кодека : A_DTS
    Продолжительность : 1 ч. 48 м.
    Вид битрейта : Постоянный
    Битрейт : 1509 Кбит/сек
    Каналы : 2 канала
    Расположение каналов : Front: L R
    Частота : 48,0 КГц
    Битовая глубина : 24 бит
    Метод сжатия : С потерями
    Размер потока : 1,15 Гбайт (12%)
    Язык : English
    Default : Нет
    Forced : Нет

    Текст
    Идентификатор : 5
    Формат : UTF-8
    Идентификатор кодека : S_TEXT/UTF8
    Идентификатор кодека/Информация : UTF-8 Plain Text
    Язык : English
    Default : Нет
    Forced : Нет
    Свернуть


    [img]http://s017.radikal.ru/i428/1605/35/6bf6d33c6178.png[/img][img]http://s020.radikal.ru/i703/1605/96/376096a17afc.png[/img][img]http://i056.radikal.ru/1605/56/3f55bd2cfc16.png[/img][img]http://s018.radikal.ru/i523/1605/a4/9a570840badc.png[/img]
    [img]http://s016.radikal.ru/i334/1605/5b/916530730648.png[/img][img]http://s14.radikal.ru/i187/1605/b1/496a6bf3f5d3.png[/img][img]http://s011.radikal.ru/i316/1605/e0/ab936f478e23.png[/img][img]http://s020.radikal.ru/i702/1605/e1/1e0c0af0b273.png[/img]
    Похожие раздачи Искать похожие
    Инструкция по скачиванию
     1  Качаем uTorrent версии 2.0 и выше
     2  После установки, жмем выше под постером на ссылку Скачать [MediaGet] или Скачать .torrent
     3  Открываем скачанный файл через соответствующий клиент: MediaGet или uTorrent
     4  Ждем пока подключатся участники
     5  Качаем
    Комментарии о  Блики в золотом глазу / Reflections in a Golden Eye | BDRip 1080p 
    Ближайшее в кино
    Вверх