• Игры для PS4
  • Игры для PS3
  • Игры для XBOX360
  • Игры для PC
  • Игры для PS2
  • Игры для PSP
  • Для телефонов
  • Музыка
  • Книги / Журналы
  • Обои
  • Опрос
    Удобен ли сайт в использовании?
      0
    • Очень удобен, все понятно1,1,false,300,full
    • Удобен1,2,false,300,full
    • Средне1,3,false,300,full
    • Неудобен, трудно ориентироваться1,4,false,300,full
    • Совсем неудобен1,5,false,300,full
    Статистика
    Всего онлайн -
    Гостей -
    Пользователей -
    Короли трекера
    
    Благодарности () Закрыть
    Название: Неверный
    Оригинальное название: The Infidel
    Год выхода: 2010
    Жанр: Драма, комедия
    Режиссер: Джон Аппикнанеси
    В ролях: Игал Наор, Стюарт Скудамор, Омид Джалили, Джеймс Флойд, Арчи Панджаби, Стюарт Энтони, Скотт Уолтерс, Леа Фатания, Мина Анвар, Амит Шах, Сорайя Редфорд, Кристиан Лис, Джона Лииз, Ричард Шифф, Миранда Харт, Крис Уилсон, Нирадж Наик, Мэдисон Коул, Башкер Патель

    О фильме:
    Махмуд Назир — счастливый отец семейства и владелец небольшой таксомоторной компании в Лондоне. Особой религиозностью никогда не отличался. Однако когда сын задумал жениться на девушке по имени Узма, мать которой вышла замуж за экстремистского исламского проповедника Аршада, Назир, чтобы не ударить лицом в грязь перед новой родней, решил показать себя правоверным мусульманином. Но в тот же день на него обрушивается неожиданное известие: разбирая старые бумаги матери, он находит свидетельство об усыновлении. Оказывается, что Махмуд — урожденный еврей, и зовут его Соли Шимшиловиц!!!


    Страна: Великобритания
    Студия: Slingshot Productions, Ombadsman, Salt Company International
    Продолжительность: 01:45:02
    Перевод: Профессиональный (двухголосый, закадровый)

    Файл
    Кодек: XviD
    Качество: HDRip
    Видео: 624x352 (1.77:1), 24.000 fps, XviD build 73 ~856 kbps avg, 0.163 bit/pixel
    Звук: 48 kHz, MPEG Layer 3, 2 ch, ~128.00 kbps avg
    Субтитры: Отсутствует

    Семпл

    MI
    General
    Complete name                  : D:Изготовление рипаThe.Infidel.2010.HDRip by shkiper.avi
    Format                         : AVI
    Format/Info                    : Audio Video Interleave
    File size                      : 747 MiB
    Duration                       : 1h 45mn
    Overall bit rate               : 994 Kbps
    Writing application            : VirtualDubMod 1.5.10.3 | www.virtualdub-fr.org || (build 2550/release)
    Writing library                : VirtualDubMod build 2550/release

    Video
    ID                             : 0
    Format                         : MPEG-4 Visual
    Format profile                 : Advanced Simple@L5
    Format settings, BVOP          : 1
    Format settings, QPel          : No
    Format settings, GMC           : No warppoints
    Format settings, Matrix        : Custom
    Codec ID                       : XVID
    Codec ID/Hint                  : XviD
    Duration                       : 1h 45mn
    Bit rate                       : 857 Kbps
    Width                          : 624 pixels
    Height                         : 352 pixels
    Display aspect ratio           : 16:9
    Frame rate                     : 24.000 fps
    Color space                    : YUV
    Chroma subsampling             : 4:2:0
    Bit depth                      : 8 bits
    Scan type                      : Progressive
    Compression mode               : Lossy
    Bits/(Pixel*Frame)             : 0.163
    Stream size                    : 644 MiB (86%)
    Writing library                : XviD 73

    Audio
    ID                             : 1
    Format                         : MPEG Audio
    Format version                 : Version 1
    Format profile                 : Layer 3
    Codec ID                       : 55
    Codec ID/Hint                  : MP3
    Duration                       : 1h 45mn
    Bit rate mode                  : Constant
    Bit rate                       : 128 Kbps
    Channel(s)                     : 2 channels
    Sampling rate                  : 48.0 KHz
    Compression mode               : Lossy
    Stream size                    : 96.2 MiB (13%)
    Alignment                      : Aligned on interleaves
    Interleave, duration           : 42 ms (1.00 video frame)
    Interleave, preload duration   : 504 ms
    Writing library                : LAME3.99r
    Encoding settings              : -m s -V 4 -q 2 -lowpass 17 -b 128Свернуть


    Скриншоты
    [screen]http://s013.radikal.ru/i324/1605/f2/4166fd977b49.png[/screen][screen]http://i023.radikal.ru/1605/54/c8556e0017ea.png[/screen][screen]http://s020.radikal.ru/i702/1605/54/c8ea1fe5b930.png[/screen][screen]http://s018.radikal.ru/i509/1605/b7/d4a6fb3e1edd.png[/screen][screen]http://s017.radikal.ru/i430/1605/84/85ac0fde5ad2.png[/screen]Свернуть
    Похожие раздачи Искать похожие
    Инструкция по скачиванию
     1  Качаем uTorrent версии 2.0 и выше
     2  После установки, жмем выше под постером на ссылку Скачать [MediaGet] или Скачать .torrent
     3  Открываем скачанный файл через соответствующий клиент: MediaGet или uTorrent
     4  Ждем пока подключатся участники
     5  Качаем
    Комментарии о  Неверный / The Infidel | HDRip 
    Ближайшее в кино
    Вверх