• Игры для PS4
  • Игры для PS3
  • Игры для XBOX360
  • Игры для PC
  • Игры для PS2
  • Игры для PSP
  • Для телефонов
  • Музыка
  • Книги/Журналы
  • Обои
  •  
    Опрос
    Откуда Вы о нас узнали?
      0
    • От знакомых2,1,false,300,full
    • Из социальных сетей2,2,false,300,full
    • Из поисковых систем2,3,false,300,full
    • Другое2,4,false,300,full
    Статистика
    Загрузка...
    Короли трекера
    Пандемия / Pandemic | BDRip-AVC
    Статус  Проверено
    В закладки
    Модератор: Max

    Пандемия / Pandemic | BDRip-AVC [Фильмы 2016] скачать торрентом/torrent бесплатно

    Год выхода
    Язык
    Закачал
    Max | 02 мая 2016 в 15ч 14м 16с
    Раздел
    Отзывов
    0
    Раздают: 12 Качают: 0 Скачали: 44 Размер: 1.95 GB
    Инфо о раздаче | Благодарности |
    0/5
    0
    0 5 0
    Поддержи нас — расскажи друзьям!
    Orbitum
    Новый интернет-браузер Быстрее загружает сайты Экономит интернет—трафик Меняет оформление страницы ВК Блокирует всю рекламу на сайтах Загружает торренты как

    µTorrent

    клиент
    Объеденяет все твои чаты из соц. сетей в один Проигрывает твою музыку не заходя во ВКонтакте
    Скачать и многое другое... Подробности на сайте производителя
    Информация о фильме
    Название: Пандемия
    Оригинальное название: Pandemic
    Год выпуска: 2016
    Жанр:  Фантастика, боевик, триллер
    Режиссер: Джон Суитц
    В ролях: Рэйчел Николс, Мисси Пайл, Элфи Оуэн-Аллен, Мекхай Файфер, Пол Гилфойл, Даниэль Роуз Расселл, Джина Ли, Ниа Дюн

    О фильме:
    На планете Земля зверствует страшный вирус, превращающий людей в безмозглых и агрессивных тварей. Доктор Лорен в составе небольшой группы направлена в центр города с заданием найти и спасти незаражённых выживших.

    Выпущено: США, New Artists Alliance, Parkside Pictures, Tadross Media Group
    Продолжительность: 01:32:01
    Перевод: Профессиональный многоголосый

    Файл
    Кодек: MPEG-4 AVC
    Качество: BDRip-AVC
    Видео: 1040x442 2400, Кбит/с
    Звук: Русский (АС3, 2 ch, 192 Кбит/с), английский (АС3, 6 ch, 448 Кбит/с)

    [img]http://lostpix.com/img/2016-05/02/jopcp5grfiahqr2ru9ero3x1m.png[/img][img]http://lostpix.com/img/2016-05/02/tbx4r8h80x3gfjlojt52klmjq.png[/img][img]http://lostpix.com/img/2016-05/02/4xiroubpi58fc5f1wm67yjfhd.png[/img][img]http://lostpix.com/img/2016-05/02/8rpj26coeu3zvi8qgcsbiyudu.png[/img]

    Скриншоты

    [img]http://s017.radikal.ru/i407/1605/2a/afe15538f9b6.png[/img][img]http://s010.radikal.ru/i313/1605/73/0b4d061d8594.png[/img]
    [img]http://s018.radikal.ru/i506/1605/98/978bb71d652f.png[/img][img]http://s018.radikal.ru/i518/1605/6c/614bbe6222fa.png[/img]


    Медиа-Инфо

    Общее
    Уникальный идентификатор                 : 210735632719760228688204185210530606910 (0x9E8A34DFD589209F96BFF413B150AF3E)
    Полное имя                               : G:Pandemija.2016.x264.BDRip.(AVC).ExKinoRay.mkv
    Формат                                   : Matroska
    Версия формата                           : Version 2
    Размер файла                             : 1,95 Гбайт
    Продолжительность                        : 1 ч. 32 м.
    Общий поток                              : 3037 Кбит/сек
    Дата кодирования                         : UTC 2016-05-02 07:30:19
    Программа кодирования                    : mkvmerge v7.8.0 ("River Man") 32bit built on Apr  3 2015 12:11:22
    Библиотека кодирования                   : libebml v1.3.1 + libmatroska v1.4.2

    Видео
    Идентификатор                            : 1
    Формат                                   : AVC
    Формат/Информация                        : Advanced Video Codec
    Профиль формата                          : High@L4.1
    Параметр CABAC формата                   : Да
    Параметр ReFrames формата                : 14 кадров
    Идентификатор кодека                     : V_MPEG4/ISO/AVC
    Продолжительность                        : 1 ч. 32 м.
    Битрейт                                  : 2400 Кбит/сек
    Ширина                                   : 1040 пикселей
    Высота                                   : 442 пикселя
    Соотношение сторон                       : 2,35:1
    Режим частоты кадров                     : Постоянный
    Частота кадров                           : 23,976 кадра/сек
    Цветовое пространство                    : YUV
    Субдискретизация насыщенности            : 4:2:0
    Битовая глубина                          : 8 бит
    Тип развёртки                            : Прогрессивная
    Бит/(Пиксели*Кадры)                      : 0.218
    Размер потока                            : 1,50 Гбайт (77%)
    Библиотека кодирования                   : x264 core 148 r2638 7599210
    Настройки программы                      : cabac=1 / ref=14 / deblock=1:-3:-3 / analyse=0x3:0x113 / me=umh / subme=11 / psy=1 / psy_rd=1.00:0.10 / mixed_ref=1 / me_range=32 / chroma_me=1 / trellis=2 / 8x8dct=1 / cqm=0 / deadzone=21,11 / fast_pskip=0 / chroma_qp_offset=-3 / threads=6 / lookahead_threads=1 / sliced_threads=0 / nr=0 / decimate=0 / interlaced=0 / bluray_compat=0 / constrained_intra=0 / bframes=16 / b_pyramid=2 / b_adapt=2 / b_bias=0 / direct=3 / weightb=1 / open_gop=0 / weightp=2 / keyint=240 / keyint_min=23 / scenecut=40 / intra_refresh=0 / rc_lookahead=40 / rc=2pass / mbtree=0 / bitrate=2400 / ratetol=1.0 / qcomp=0.63 / qpmin=0 / qpmax=39 / qpstep=4 / cplxblur=20.0 / qblur=0.5 / vbv_maxrate=50000 / vbv_bufsize=62500 / nal_hrd=none / filler=0 / ip_ratio=1.15 / pb_ratio=1.30 / aq=3:0.90
    Язык                                     : English
    Default                                  : Да
    Forced                                   : Нет
    Основные цвета                           : BT.709
    Характеристики трансфера                 : BT.709
    Коэффициенты матрицы                     : BT.709
    colour_range                             : Limited

    Аудио #1
    Идентификатор                            : 2
    Формат                                   : AC-3
    Формат/Информация                        : Audio Coding 3
    Расширение режима                        : CM (complete main)
    Параметр Endianness формата              : Big
    Идентификатор кодека                     : A_AC3
    Продолжительность                        : 1 ч. 32 м.
    Вид битрейта                             : Постоянный
    Битрейт                                  : 192 Кбит/сек
    Каналы                                   : 2 канала
    Расположение каналов                     : Front: L R
    Частота                                  : 48,0 КГц
    Битовая глубина                          : 16 бит
    Метод сжатия                             : С потерями
    Размер потока                            : 126 Мбайт (6%)
    Язык                                     : Russian
    Default                                  : Да
    Forced                                   : Да

    Аудио #2
    Идентификатор                            : 3
    Формат                                   : AC-3
    Формат/Информация                        : Audio Coding 3
    Расширение режима                        : CM (complete main)
    Параметр Endianness формата              : Big
    Идентификатор кодека                     : A_AC3
    Продолжительность                        : 1 ч. 32 м.
    Вид битрейта                             : Постоянный
    Битрейт                                  : 448 Кбит/сек
    Каналы                                   : 6 каналов
    Расположение каналов                     : Front: L C R, Side: L R, LFE
    Частота                                  : 48,0 КГц
    Битовая глубина                          : 16 бит
    Метод сжатия                             : С потерями
    Размер потока                            : 295 Мбайт (15%)
    Язык                                     : English
    Default                                  : Нет
    Forced                                   : Да

    Меню
    00:00:00.000                             : en:00:00:00.000
    00:09:47.712                             : en:00:09:47.712
    00:17:12.782                             : en:00:17:12.782
    00:25:10.384                             : en:00:25:10.384
    00:33:38.808                             : en:00:33:38.808
    00:39:56.060                             : en:00:39:56.060
    00:49:01.939                             : en:00:49:01.939
    00:57:03.962                             : en:00:57:03.962
    01:04:01.796                             : en:01:04:01.796
    01:12:30.179                             : en:01:12:30.179
    01:20:08.137                             : en:01:20:08.137
    01:27:56.855                             : en:01:27:56.855
    Еще похожие »

    Как скачать?
    1. Качаем UTorrent версии 2.0 и выше отсюда
    2. После установки, жмем на ссылку Скачать торрент.
    3. Открываем его через utorrent.
    4. Ждем пока подключатся участники.
    5. Качаем.


    Комментарии о Пандемия / Pandemic | BDRip-AVC
    Добавлять комментарии могут только зарегистрированные пользователи

    Зарегистрироваться или Войти


    Ближайшее в кино
    • Безумие Георга III дата выхода 20 ноября 2018Безумие Георга III
      Дата выхода: 20 ноября 2018
    • 7226|Догвилль|22 ноября 2018|200|300Догвилль
      Дата выхода: 22 ноября 2018
    • 1009784|Апгрейд|22 ноября 2018|200|300Апгрейд
      Дата выхода: 22 ноября 2018
    • 988782|Ральф против интернета|22 ноября 2018|200|300Ральф против интернета
      Дата выхода: 22 ноября 2018
    • 965901|Вдовы|22 ноября 2018|200|300Вдовы
      Дата выхода: 22 ноября 2018
    • 1011685|Нация убийц|22 ноября 2018|200|300Нация убийц
      Дата выхода: 22 ноября 2018
    • 891414|Жена|22 ноября 2018|200|300Жена
      Дата выхода: 22 ноября 2018
    • 934207|Мотылёк|22 ноября 2018|200|300Мотылёк
      Дата выхода: 22 ноября 2018
    • 1044912|Вечерняя школа|22 ноября 2018|200|300Вечерняя школа
      Дата выхода: 22 ноября 2018
    • 1036188|Быть Астрид Линдгрен|22 ноября 2018|200|300Быть Астрид Линдгрен
      Дата выхода: 22 ноября 2018
    • 1048852|Помешанный на времени|22 ноября 2018|200|300Помешанный на времени
      Дата выхода: 22 ноября 2018
    • 1049775|Подбросы|22 ноября 2018|200|300Подбросы
      Дата выхода: 22 ноября 2018
    • 1108741|Я — миллиардер|22 ноября 2018|200|300Я — миллиардер
      Дата выхода: 22 ноября 2018
    • 1118041|Три лица|22 ноября 2018|200|300Три лица
      Дата выхода: 22 ноября 2018
    • 1209190|МУЛЬТ в кино. Выпуск 85. Мамин праздник|24 ноября 2018|200|300МУЛЬТ в кино. Выпуск 85. Мамин праздник
      Дата выхода: 24 ноября 2018
    Вверх