• Игры для PS4
  • Игры для PS3
  • Игры для XBOX360
  • Игры для PC
  • Игры для PS2
  • Игры для PSP
  • Для телефонов
  • Музыка
  • Книги / Журналы
  • Обои
  • Опрос
    Откуда Вы о нас узнали?
      0
    • От знакомых2,1,false,300,full
    • Из социальных сетей2,2,false,300,full
    • Из поисковых систем2,3,false,300,full
    • Другое2,4,false,300,full
    Статистика
    Всего онлайн -
    Гостей -
    Пользователей -
    Короли трекера
    
    Благодарности () Закрыть
    Информация о фильме
    Название: Конец
    Оригинальное название: The End
    Год выхода: 1978
    Жанр: Комедия, драма
    Режиссер: Берт Рейнолдс
    В ролях: Бёрт Рейнолдс, Дом ДеЛуиз, Салли Филд, Строзер Мартин, Дэвид Стейнберг, Джоанн Вудворд, Норман Фелл, Мирна Лой, Кристи МакНикол, Пэт О"Брайен, Робби Бенсон, Карл Райнер

    О фильме:
    Сонни узнает, что он умирает от редкой болезни и жить ему осталось не более шести месяцев. Он решает, что лучше покончить жизнь самоубийством, чем жить в ожидании близкой смерти. Приняв смертельную (по его мнению) дозу снотворного он, однако, просыпается на следующее утро в психиатрической клинике, где знакомится с Марлоном, одним из пациентов. Марлон всячески старается помочь Сонни уйти из жизни, но все их усилия ни к чему не приводят. Наконец, во время неудачной попытки утопиться, Сонни понимает, что хочет продолжать жить. Однако, Марлон думает иначе.

    [img]http://s43.radikal.ru/i101/1512/56/62e6219dd06d.png[/img]

    Страна: США
    Студия: Gordon-Reynolds Productions
    Продолжительность: 01:40:45
    Перевод: Профессиональный (двухголосый, закадровый) | НТВ+

    Файл
    Формат: AVI
    Качество: BDRip
    Видео: XviD, 704x384, 23.976 fps, 1857 kbps
    Звук: AC3, 2 ch, ~192 kbps



    MediaInfo
    Общее
    Полное имя                               : The.End.1978.BDRip.1450MB.MegaPeer.avi
    Формат                                   : AVI
    Формат/Информация                        : Audio Video Interleave
    Размер файла                             : 1,45 Гбайт
    Продолжительность                        : 1 ч. 40 м.
    Общий поток                              : 2059 Кбит/сек
    Программа кодирования                    : VirtualDubMod 1.5.10.3 | www.virtualdub-fr.org || (build 2550/release)
    Библиотека кодирования                   : VirtualDubMod build 2550/release

    Видео
    Идентификатор                            : 0
    Формат                                   : MPEG-4 Visual
    Профиль формата                          : Advanced Simple@L5
    Параметр BVOP формата                    : 1
    Параметр QPel формата                    : Нет
    Параметр GMC формата                     : Без точки перехода
    Параметр матрицы формата                 : Выборочная
    Идентификатор кодека                     : XVID
    Идентификатор кодека/Подсказка           : XviD
    Продолжительность                        : 1 ч. 40 м.
    Битрейт                                  : 1857 Кбит/сек
    Ширина                                   : 704 пикселя
    Высота                                   : 384 пикселя
    Соотношение сторон                       : 1,85:1
    Частота кадров                           : 23,976 (23976/1000) кадра/сек
    Цветовое пространство                    : YUV
    Субдискретизация насыщенности            : 4:2:0
    Битовая глубина                          : 8 бит
    Тип развёртки                            : Прогрессивная
    Метод сжатия                             : С потерями
    Бит/(Пиксели*Кадры)                      : 0.287
    Размер потока                            : 1,31 Гбайт (90%)
    Библиотека кодирования                   : XviD 73

    Аудио
    Идентификатор                            : 1
    Формат                                   : AC-3
    Формат/Информация                        : Audio Coding 3
    Расширение режима                        : CM (complete main)
    Параметр Endianness формата              : Big
    Идентификатор кодека                     : 2000
    Продолжительность                        : 1 ч. 40 м.
    Вид битрейта                             : Постоянный
    Битрейт                                  : 192 Кбит/сек
    Каналы                                   : 2 канала
    Расположение каналов                     : Front: L R
    Частота                                  : 48,0 КГц
    Частота кадров                           : 31,250 кадров/сек (1536 spf)
    Метод сжатия                             : С потерями
    Размер потока                            : 138 Мбайт (9%)
    Выравнивание                             : Разделение по промежуткам
    Продолжительность промежутка             : 42  мс. (1,00 видеокадр)
    Время предзагрузки промежутка            : 500  мс.

    Свернуть
    Похожие раздачи Искать похожие
    Инструкция по скачиванию
     1  Качаем uTorrent версии 2.0 и выше
     2  После установки, жмем выше под постером на ссылку Скачать [MediaGet] или Скачать .torrent
     3  Открываем скачанный файл через соответствующий клиент: MediaGet или uTorrent
     4  Ждем пока подключатся участники
     5  Качаем
    Комментарии о  Конец / The End | BDRip 
    Ближайшее в кино
    Вверх