• Игры для PS4
  • Игры для PS3
  • Игры для XBOX360
  • Игры для PC
  • Игры для PS2
  • Игры для PSP
  • Для телефонов
  • Музыка
  • Книги / Журналы
  • Обои
  • Опрос
    Удобен ли сайт в использовании?
      0
    • Очень удобен, все понятно1,1,false,300,full
    • Удобен1,2,false,300,full
    • Средне1,3,false,300,full
    • Неудобен, трудно ориентироваться1,4,false,300,full
    • Совсем неудобен1,5,false,300,full
    Статистика
    Всего онлайн -
    Гостей -
    Пользователей -
    Короли трекера
    
    Благодарности () Закрыть
    Жанр: боевик, фантастика, драма
    Продолжительность: ~ 00:42:00
    Перевод: Профессиональный (дублированый) ТК "Пятница"

    Режиссёры:
    Джон Беринг, Майкл Шульц, Глен Винтер

    В ролях:
    Стивен Амелл (Оливер Куин), Эмили Бетт Рикардс (Фелисити Смоук), Кэти Кэссиди (Лорел Лэнс), Дэвид Рэмси (Джон Диггл), Уилла Холлэнд (Тея Куин), Сюзанна Томпсон (Мойра Куин), Пол Блекторн (Квентин Лэнс), Ману Беннетт (Слэйд Уилсон), Колтон Хэйнс (Рой Харпер)

    Описание:
    После кораблекрушения плейбой миллиардер Оливер Куин пропадает и считается погибшим в течение пяти лет, после чего его обнаруживают живым на затерянном острове в Тихом океане. Когда он возвращается домой в Старлинг-Сити, его преданная мать Мойра, столь любимая сестра Теа и лучший друг Томми приветствуют его дома, но они видят, что Оливер изменился после испытаний на острове. Хотя Оливер скрывает правду о человеке, которым он стал…

    Семпл

    Качество: BDRip 1080p
    Формат: MKV
    Видео: 1920x1080 (16:9), H.264, ~6 100 Kbps, 23.976 fps
    Аудио 1: AC3, 48.0 KHz, 2 ch, 192 kbps  RUS
    Аудио 2: AAC, 48.0 KHz, 6 ch, 256 kbps  ENG
    Субтитры: английские

    Запись звука - #Antisnl#, Beer kolesik Drinkers и IVXL, синхронизация - Martokc.

    MediaInfo
    Общее
    Уникальный идентификатор                 : 225919803313886535114984244686030814925 (0xA9F69248CAF0321C9C352E782BD6BECD)
    Полное имя                               : D:ЗагрузкиtorrentArrow.BDRip.S02.1080pArrow.S02E01.BDRip.1080p.mkv
    Формат                                   : Matroska
    Версия формата                           : Version 4 / Version 2
    Размер файла                             : 1,95 Гбайт
    Продолжительность                        : 42 м.
    Общий поток                              : 6590 Кбит/сек
    Дата кодирования                         : UTC 2016-03-29 03:58:44
    Программа кодирования                    : mkvmerge v9.0.1 ("Obstacles") 64bit
    Библиотека кодирования                   : libebml v1.3.3 + libmatroska v1.4.4

    Видео
    Идентификатор                            : 1
    Формат                                   : AVC
    Формат/Информация                        : Advanced Video Codec
    Профиль формата                          : High @ L4.1
    Параметр CABAC формата                   : Да
    Параметр ReFrames формата                : 4 кадра
    Идентификатор кодека                     : V_MPEG4/ISO/AVC
    Продолжительность                        : 42 м.
    Битрейт                                  : 6100 Кбит/сек
    Ширина                                   : 1920 пикселей
    Высота                                   : 1080 пикселей
    Соотношение сторон                       : 16:9
    Режим частоты кадров                     : Постоянный
    Частота кадров                           : 23,976 (24000/1001) кадра/сек
    Цветовое пространство                    : YUV
    Субдискретизация насыщенности            : 4:2:0
    Битовая глубина                          : 8 бит
    Тип развёртки                            : Прогрессивная
    Бит/(Пиксели*Кадры)                      : 0.123
    Размер потока                            : 1,80 Гбайт (93%)
    Библиотека кодирования                   : x264 core 142 r2479 dd79a61
    Настройки программы                      : cabac=1 / ref=2 / deblock=1:-1:-1 / analyse=0x3:0x113 / me=hex / subme=6 / psy=1 / psy_rd=1.00:0.15 / mixed_ref=1 / me_range=16 / chroma_me=1 / trellis=1 / 8x8dct=1 / cqm=0 / deadzone=21,11 / fast_pskip=1 / chroma_qp_offset=-3 / threads=6 / lookahead_threads=1 / sliced_threads=0 / nr=0 / decimate=1 / interlaced=0 / bluray_compat=0 / constrained_intra=0 / bframes=3 / b_pyramid=2 / b_adapt=1 / b_bias=0 / direct=1 / weightb=1 / open_gop=0 / weightp=1 / keyint=240 / keyint_min=24 / scenecut=40 / intra_refresh=0 / rc_lookahead=30 / rc=2pass / mbtree=1 / bitrate=6100 / ratetol=1.0 / qcomp=0.60 / qpmin=0 / qpmax=69 / qpstep=4 / cplxblur=20.0 / qblur=0.5 / vbv_maxrate=62500 / vbv_bufsize=78125 / nal_hrd=none / filler=0 / ip_ratio=1.40 / aq=1:1.00
    Default                                  : Да
    Forced                                   : Нет
    Цветовой диапазон                        : Limited
    Основные цвета                           : BT.709
    Характеристики трансфера                 : BT.709
    Коэффициенты матрицы                     : BT.709

    Аудио #1
    Идентификатор                            : 2
    Формат                                   : AC-3
    Формат/Информация                        : Audio Coding 3
    Расширение режима                        : CM (complete main)
    Параметр Endianness формата              : Big
    Идентификатор кодека                     : A_AC3
    Продолжительность                        : 42 м.
    Вид битрейта                             : Постоянный
    Битрейт                                  : 192 Кбит/сек
    Каналы                                   : 2 канала
    Расположение каналов                     : Front: L R
    Частота                                  : 48,0 КГц
    Частота кадров                           : 31,250 кадров/сек (1536 spf)
    Метод сжатия                             : С потерями
    Задержка видео                           : -105 мс.
    Размер потока                            : 58,1 Мбайт (3%)
    Язык                                     : Russian
    Default                                  : Да
    Forced                                   : Нет

    Аудио #2
    Идентификатор                            : 3
    Формат                                   : AAC
    Формат/Информация                        : Advanced Audio Codec
    Профиль формата                          : HE-AAC / LC
    Идентификатор кодека                     : A_AAC
    Продолжительность                        : 42 м.
    Битрейт                                  : 256 Кбит/сек
    Каналы                                   : 6 каналов
    Расположение каналов                     : Front: L C R, Side: L R, LFE
    Частота                                  : 48,0 КГц / 24,0 КГц
    Частота кадров                           : 23,438 кадра/сек (1024 spf)
    Метод сжатия                             : С потерями
    Задержка видео                           : -105 мс.
    Размер потока                            : 77,5 Мбайт (4%)
    Язык                                     : English
    Default                                  : Нет
    Forced                                   : Нет

    Текст
    Идентификатор                            : 4
    Формат                                   : PGS
    Идентификатор кодека                     : S_HDMV/PGS
    Идентификатор кодека/Информация          : Picture based subtitle format used on BDs/HD-DVDs
    Продолжительность                        : 42 м.
    Битрейт                                  : 41,9 Кбит/сек
    Count of elements                        : 1270
    Размер потока                            : 12,6 Мбайт (1%)
    Язык                                     : English
    Default                                  : Нет
    Forced                                   : Нет

    Меню
    00:00:00.000                             : :Recap
    00:00:57.641                             : :Prologue / Opening
    00:03:39.719                             : :Part A
    00:12:23.326                             : :Part B
    00:20:02.951                             : :Part C
    00:25:59.641                             : :Part D
    00:30:05.387                             : :Part E
    00:33:00.562                             : :Part F
    00:41:48.798                             : :EndingСвернуть


    Скриншоты
    [screen]http://i75.fastpic.ru/big/2016/0329/02/463c2475286789aa1f94251e301ed002.png[/screen][screen]http://i75.fastpic.ru/big/2016/0329/29/f47f6bda9ce1cfc5d156ee6a3e920529.png[/screen][screen]http://i75.fastpic.ru/big/2016/0329/ff/_20099e51c491249aaec5357f0d39d9ff.png?noht=1[/screen][screen]http://i75.fastpic.ru/big/2016/0329/04/_d93601480b74421bc4751aa1ca274004.png?noht=1[/screen][screen]http://i75.fastpic.ru/big/2016/0329/5c/a41659f3796bfd4581f2412ff905565c.png[/screen][screen]http://i75.fastpic.ru/big/2016/0329/c9/_07a16f5f22940d0ed284c978170d01c9.png?noht=1[/screen][screen]http://i75.fastpic.ru/big/2016/0329/2d/f32236645ba5b6ef7e9503c1d148472d.png[/screen][screen]http://i75.fastpic.ru/big/2016/0329/9f/a949cb268be155ed5a694de6912e9f9f.png[/screen]
    Свернуть


    Похожие раздачи Искать похожие
    Инструкция по скачиванию
     1  Качаем uTorrent версии 2.0 и выше
     2  После установки, жмем выше под постером на ссылку Скачать [MediaGet] или Скачать .torrent
     3  Открываем скачанный файл через соответствующий клиент: MediaGet или uTorrent
     4  Ждем пока подключатся участники
     5  Качаем
    Комментарии о  Стрела / Arrow [Сезон 02] | BDRip 1080p 
    Ближайшее в кино
    Вверх