• Игры для PS4
  • Игры для PS3
  • Игры для XBOX360
  • Игры для PC
  • Игры для PS2
  • Игры для PSP
  • Для телефонов
  • Музыка
  • Книги / Журналы
  • Обои
  • Опрос
    Откуда Вы о нас узнали?
      0
    • От знакомых2,1,false,300,full
    • Из социальных сетей2,2,false,300,full
    • Из поисковых систем2,3,false,300,full
    • Другое2,4,false,300,full
    Статистика
    Всего онлайн -
    Гостей -
    Пользователей -
    Короли трекера
    
    Благодарности () Закрыть
    Информация о фильме
    Название: Сожители
    Оригинальное название: Crashing
    Год выхода: 2016
    Жанр: комедия
    Режиссер: Джордж Кэйн
    В ролях: Фиби Уоллер-Бридж, Джонатан Бэйли, Джули Дрей, Луиз Форд, Дэмиен Молони, Эдриан Скарборо, Амит Шах

    О фильме:
    Группа молодых людей присматривает за неким заброшенным госпиталем, проживая в нем за минимальную арендную плату.

    [img]http://imdb.snick.ru/ratefor/02/tt5295524.png[/img]
    Страна: Великобритания
    Продолжительность: ~00:25:00 серия
    Перевод: Любительский двухголосый [HamsterStudio]

    Файл
    Кодек: XviD
    Качество: HDTVRip
    Видео: 720x400, 1 087 Kbps, 25.000 fps
    Звук: MP3, 128 кб/с (2 ch)

    MediaInfo
    General
    Complete name                            : /home/roma/Відео/Сожители (Crashing)/Crashing.s01e01.avi
    Format                                   : AVI
    Format/Info                              : Audio Video Interleave
    File size                                : 214 MiB
    Duration                                 : 24mn 25s
    Overall bit rate                         : 1 225 Kbps
    Writing application                      : VirtualDubMod 1.5.10.2 (build 2540/release)
    Writing library                          : VirtualDubMod build 2540/release

    Video
    ID                                       : 0
    Format                                   : MPEG-4 Visual
    Format profile                           : Advanced Simple@L5
    Format settings, BVOP                    : 2
    Format settings, QPel                    : No
    Format settings, GMC                     : No warppoints
    Format settings, Matrix                  : Default (H.263)
    Muxing mode                              : Packed bitstream
    Codec ID                                 : XVID
    Codec ID/Hint                            : XviD
    Duration                                 : 24mn 25s
    Bit rate                                 : 1 087 Kbps
    Width                                    : 720 pixels
    Height                                   : 400 pixels
    Display aspect ratio                     : 16:9
    Frame rate                               : 25.000 fps
    Original frame rate                      : 25.044 fps
    Color space                              : YUV
    Chroma subsampling                       : 4:2:0
    Bit depth                                : 8 bits
    Scan type                                : Progressive
    Compression mode                         : Lossy
    Bits/(Pixel*Frame)                       : 0.151
    Stream size                              : 190 MiB (89%)
    Writing library                          : XviD 67

    Audio
    ID                                       : 1
    Format                                   : MPEG Audio
    Format version                           : Version 1
    Format profile                           : Layer 3
    Codec ID                                 : 55
    Codec ID/Hint                            : MP3
    Duration                                 : 24mn 25s
    Bit rate mode                            : Constant
    Bit rate                                 : 128 Kbps
    Channel(s)                               : 2 channels
    Sampling rate                            : 48.0 KHz
    Compression mode                         : Lossy
    Stream size                              : 22.4 MiB (10%)
    Alignment                                : Aligned on interleaves
    Interleave, duration                     : 40 ms (1.00 video frame)
    Interleave, preload duration             : 504 msСвернуть


    Семпл

    Скриншоты
    [screen]http://i73.fastpic.ru/big/2016/0403/2c/56609b9d1a01f56d64d051bc04e7f52c.png[/screen][screen]http://i73.fastpic.ru/big/2016/0403/39/9b5630606b984712de4472a55a98cd39.png[/screen][screen]http://i73.fastpic.ru/big/2016/0403/99/1c8badc41e0e164ab8797229ba0d9399.png[/screen][screen]http://i73.fastpic.ru/big/2016/0403/8c/0a94803d9a97514d6099f93bc722ca8c.png[/screen]Свернуть


    [img]http://i75.fastpic.ru/big/2016/0403/51/71d96446e24042575b23a449cc079e51.gif[/img]
    Инструкция по скачиванию
     1  Качаем uTorrent версии 2.0 и выше
     2  После установки, жмем выше под постером на ссылку Скачать [MediaGet] или Скачать .torrent
     3  Открываем скачанный файл через соответствующий клиент: MediaGet или uTorrent
     4  Ждем пока подключатся участники
     5  Качаем
    Комментарии о  Сожители / Crashing [Сезон 01 | 01-05 серии из 06] | HDTVRip 
    Ближайшее в кино
    Вверх