• Игры для PS4
  • Игры для PS3
  • Игры для XBOX360
  • Игры для PC
  • Игры для PS2
  • Игры для PSP
  • Для телефонов
  • Музыка
  • Книги / Журналы
  • Обои
  • Опрос
    Откуда Вы о нас узнали?
      0
    • От знакомых2,1,false,300,full
    • Из социальных сетей2,2,false,300,full
    • Из поисковых систем2,3,false,300,full
    • Другое2,4,false,300,full
    Статистика
    Всего онлайн -
    Гостей -
    Пользователей -
    Короли трекера
    Благодарности () Закрыть
    Название: Michael Schenker Group - The 30th Anniversary Concert - Live in Tokyo
    Исполнитель: Michael Schenker Group
    Год выпуска: 2010
    Жанр:  Hard Rock
    Продолжительность: 01:44:25

    Описание: Первый концерт всемирного тура по случаю 30-й годовщины основания M.S.G., Nakano Sun Plaza, Токио, 13 января 2010 г.
    Один из лучших составов M.S.G. 1980-x, партнеры Шенкера по дебютному альбому "The Michael Schenker Group" Гари Барден и Саймон Филипс.

    Состав:
    Michael Schenker - Lead Guitar, Vocals
    Gary Barden - Lead Vocals
    Neil Murray - Bass Guitar
    Wayne Findlay - Guitar, Keyboards, Vocals
    Simon Phillips - Drums

    Треклист:
    01. Welcome Howl
    02. Feels Like A Good Thing
    03. Cry For The Nations
    04. Let Sleeping Dogs Lie
    05. Armed And Ready
    06. Victim Of Illusion
    07. Are You Ready To Rock
    08. I Want You
    09. A Night To Remember
    10. Into The Arena
    11. Lost Horizons
    12. Rock My Nights Away
    13. On And On
    14. Attack Of The Mad Axeman
    15. Ride On My Way
    16. Rock Bottom
    17. Dance Lady Gipsy
    18. Doctor, Doctor

    Качество: BDRip 1080p
    Формат: MKV
    Видео кодек: H264
    Аудио кодек: DTS, PCM
    Видео: MPEG4 Video (H264), 1920x1080, 23.976fps, 12.0 Mbps
    Аудио: DTS, 48000 Hz, 6ch, 1509 kbps
    Аудио: PCM, 48000 Hz, 2ch, 1536 kbps

    Сэмпл

    MediaInfo

    General
    Unique ID                      : 220122087713766763570073116451833616799 (0xA599F8D5F7E4E0F09AD0C3916C4F999F)
    Complete name                  : F:Torrent 22010.M.S.G.Live.in.Tokyo.renta23.mkv
    Format                         : Matroska
    Format version                 : Version 4 / Version 2
    File size                      : 11.0 GiB
    Duration                       : 1h 44mn
    Overall bit rate               : 15.0 Mbps
    Movie name                     : 2010 Michael Schenker Group / renta23
    Encoded date                   : UTC 2016-05-02 08:08:06
    Writing application            : mkvmerge v8.3.0 ("Over the Horizon") 64bit
    Writing library                : libebml v1.3.1 + libmatroska v1.4.2

    Video
    ID                             : 1
    Format                         : AVC
    Format/Info                    : Advanced Video Codec
    Format profile                 : High@L4.1
    Format settings, CABAC         : Yes
    Format settings, ReFrames      : 4 frames
    Codec ID                       : V_MPEG4/ISO/AVC
    Duration                       : 1h 44mn
    Bit rate                       : 12.0 Mbps
    Width                          : 1 920 pixels
    Height                         : 1 080 pixels
    Display aspect ratio           : 16:9
    Frame rate mode                : Constant
    Frame rate                     : 23.976 (24000/1001) fps
    Color space                    : YUV
    Chroma subsampling             : 4:2:0
    Bit depth                      : 8 bits
    Scan type                      : Progressive
    Bits/(Pixel*Frame)             : 0.241
    Stream size                    : 8.75 GiB (80%)
    Title                          : 2010 Michael Schenker Group - The 30th Anniversary Concert, Live in Tokyo
    Writing library                : x264 core 146 r2538 121396c
    Encoding settings              : cabac=1 / ref=4 / deblock=1:-1:-1 / analyse=0x3:0x133 / me=umh / subme=11 / psy=1 / psy_rd=1.07:0.23 / mixed_ref=1 / me_range=32 / chroma_me=1 / trellis=2 / 8x8dct=1 / cqm=0 / deadzone=21,11 / fast_pskip=0 / chroma_qp_offset=-3 / threads=12 / lookahead_threads=3 / sliced_threads=0 / nr=0 / decimate=1 / interlaced=0 / bluray_compat=0 / constrained_intra=0 / bframes=10 / b_pyramid=2 / b_adapt=2 / b_bias=0 / direct=3 / weightb=1 / open_gop=0 / weightp=2 / keyint=250 / keyint_min=23 / scenecut=40 / intra_refresh=0 / rc=2pass / mbtree=0 / bitrate=12000 / ratetol=1.0 / qcomp=0.60 / qpmin=0 / qpmax=69 / qpstep=4 / cplxblur=20.0 / qblur=0.5 / ip_ratio=1.40 / pb_ratio=1.30 / aq=2:1.00
    Language                       : English
    Default                        : Yes
    Forced                         : No

    Audio #1
    ID                             : 2
    Format                         : DTS
    Format/Info                    : Digital Theater Systems
    Mode                           : 16
    Format settings, Endianness    : Big
    Codec ID                       : A_DTS
    Duration                       : 1h 44mn
    Bit rate mode                  : Constant
    Bit rate                       : 1 509 Kbps
    Channel(s)                     : 6 channels
    Channel positions              : Front: L C R, Side: L R, LFE
    Sampling rate                  : 48.0 KHz
    Frame rate                     : 93.750 fps (512 spf)
    Bit depth                      : 24 bits
    Compression mode               : Lossy
    Stream size                    : 1.10 GiB (10%)
    Title                          : DTS 5.1
    Language                       : English
    Default                        : Yes
    Forced                         : No

    Audio #2
    ID                             : 3
    Format                         : PCM
    Codec ID                       : A_PCM/INT/LIT
    Duration                       : 1h 44mn
    Bit rate mode                  : Constant
    Bit rate                       : 1 536 Kbps
    Channel(s)                     : 2 channels
    Sampling rate                  : 48.0 KHz
    Frame rate                     : 32.000 fps (1500 spf)
    Bit depth                      : 16 bits
    Stream size                    : 1.12 GiB (10%)
    Title                          : PCM Stereo
    Language                       : English
    Default                        : No
    Forced                         : No

    Menu
    00:00:00.000                   : en:Chapter 01
    00:01:56.991                   : en:Chapter 02
    00:05:45.845                   : en:Chapter 03
    00:11:31.816                   : en:Chapter 04
    00:18:34.738                   : en:Chapter 05
    00:23:07.177                   : en:Chapter 06
    00:28:30.959                   : en:Chapter 07
    00:35:24.372                   : en:Chapter 08
    00:39:28.115                   : en:Chapter 09
    00:43:41.452                   : en:Chapter 10
    00:49:16.495                   : en:Chapter 11
    00:59:06.960                   : en:Chapter 12
    01:03:59.001                   : en:Chapter 13
    01:09:53.147                   : en:Chapter 14
    01:15:52.297                   : en:Chapter 15
    01:20:19.773                   : en:Chapter 16
    01:33:14.046                   : en:Chapter 17
    01:37:45.150                   : en:Chapter 18

    Свернуть


    [img]http://i77.fastpic.ru/big/2016/0502/7c/b359661aa4d1c27a677e40d60571fd7c.png[/img][img]http://i80.fastpic.ru/big/2016/0502/15/e6756f35427717a50244760a45e64d15.png[/img][img]http://i79.fastpic.ru/big/2016/0502/14/b51c37116b579de44b0f1b6b7bdcff14.png[/img][img]http://i77.fastpic.ru/big/2016/0502/5e/dee9b3edcaf41680233e1cb5a33a095e.png[/img]
    [img]http://i78.fastpic.ru/big/2016/0502/e5/e9093719843121a04d9b063ee9826de5.png[/img][img]http://i78.fastpic.ru/big/2016/0502/4f/67a0ab878712d2ebbd30bc663034984f.png[/img][img]http://i79.fastpic.ru/big/2016/0502/fb/fed4c21ba7a2019bba400ea904fed1fb.png[/img][img]http://i77.fastpic.ru/big/2016/0502/ee/429b7f36cd567d495e045fda85f4d4ee.png[/img]
    Похожие раздачи Искать похожие
    Инструкция по скачиванию
     1  Качаем uTorrent версии 2.0 и выше
     2  После установки, жмем выше под постером на ссылку Скачать [MediaGet] или Скачать .torrent
     3  Открываем скачанный файл через соответствующий клиент: MediaGet или uTorrent
     4  Ждем пока подключатся участники
     5  Качаем
    Комментарии о  Michael Schenker Group - The 30th Anniversary Concert - Live in Tokyo 
    Ближайшее в кино
    Вверх