• Игры для PS4
  • Игры для PS3
  • Игры для XBOX360
  • Игры для PC
  • Игры для PS2
  • Игры для PSP
  • Для телефонов
  • Музыка
  • Книги/Журналы
  • Обои
  •  
    Опрос
    Удобен ли сайт в использовании?
      0
    • Очень удобен, все понятно1,1,false,300,full
    • Удобен1,2,false,300,full
    • Средне1,3,false,300,full
    • Неудобен, трудно ориентироваться1,4,false,300,full
    • Совсем неудобен1,5,false,300,full
    Статистика
    Загрузка...
    Настоящая любовь / True Romance | BDRip 720p
    Статус  Проверено
    В закладки
    Модератор: Max

    Настоящая любовь / True Romance | BDRip 720p [Фильмы 1993] скачать торрентом/torrent бесплатно

    Год выхода
    Язык
    Закачал
    Аноним | 02 мая 2016 в 23ч 01м 56с
    Раздел
    Отзывов
    0
    Раздают: 0 Качают: 0 Скачали: 0 Размер: 10.16 GB
    Инфо о раздаче | Благодарности |
    0/5
    0
    0 5 0
    Поддержи нас — расскажи друзьям!
    Orbitum
    Новый интернет-браузер Быстрее загружает сайты Экономит интернет—трафик Меняет оформление страницы ВК Блокирует всю рекламу на сайтах Загружает торренты как

    µTorrent

    клиент
    Объеденяет все твои чаты из соц. сетей в один Проигрывает твою музыку не заходя во ВКонтакте
    Скачать и многое другое... Подробности на сайте производителя
    Информация о фильме
    Название: Настоящая любовь
    Оригинальное название: True Romance
    Год выхода: 1993
    Жанр: триллер, драма, криминал
    Режиссер: Тони Скотт
    В ролях: Кристиан Слэйтер, Патриция Аркетт, Майкл Рапапорт, Джеймс Гандольфини, Бронсон Пиншо, Дэннис Хоппер, Кристофер Уокен, Сол Рубинек, Гэри Олдман, Том Сайзмор, Брэд Питт, Вэл Килмер, Крис Пенн, Кевин Корригэн, Пол Бен-Виктор, Сэмюэл Л. Джексон, Виктор Арго, Фрэнк Адонис, Пол Бейтс, Лоуренс Мэйсон, Эрик Аллан Крамер, Патрик Джон Херли, Майкл Бич, Грегори Спорледер, Анна Левайн-Томпсон, Мария Питилло, Кончата Феррелл, Джон Бауэр, Джо Д’Анджерио, Джон Ченатьемпо, Саид Фарадж, Дэннис Гарбер, Скотт Эверс, Хилари Клим, Стив Гонсалес, Джек Блэк

    О фильме:
    Кларенс Уорли и Алабама Уитмэн познакомились и провели вместе ночь. Алабама призналась, что она делает первые шаги на трудном поприще «call-girl», то есть «девушки по вызову». Кларенс Уорли не был суперменом, однако, «навестив» сутенера Алабамы, оставил после себя два трупа - сутенера и его телохранителя.

    Страна: США, Франция, August Entertainment, Davis-Films, Morgan Creek Productions
    Продолжительность: 02:00:30
    Перевод: Профессиональный многоголосый, профессиональный двухголосый, авторский

    Файл
    Кодек: x264
    Качество: BDRip 720p
    Видео: MPEG-4 AVC, 7750 Kбит/с, 1280х544
    Звук: Русский (AC3, 2 ch, 224 Кбит/с), (AC3, 6 ch, 448 Кбит/с), украинский (AC3, 2 ch, 224 Кбит/с), английский (AC3, 6 ch, 448 Кбит/с)
    Субтитры: Русские (R5), английские

    Примечание
    Исходник HDCLUB by Skazhutin.
    Работа выполнена в рамках сервиса "Мастерская".
    Спонсоры работы: Dervish, delia, Barton, tool9, sync740, gelom, mvch73, yakovia, andreyka48.

    Звук:
    Аудио 01: Dolby Digital Audio Russian, 448 kbps, 5.1 ch | MVO | R5 (Twister)
    Аудио 02: Dolby Digital Audio Russian, 512 kbps, 5.1 ch | MVO | Киномания
    Аудио 03: Dolby Digital Audio Russian, 224 kbps, 2.0 ch | MVO | ДТВ
    Аудио 04: Dolby Digital Audio Russian, 224 kbps, 2.0 ch | MVO | Тивионика
    Аудио 05: Dolby Digital Audio Russian, 224 kbps, 2.0 ch | MVO | Петербург 5 канал
    Аудио 06: Dolby Digital Audio Russian, 224 kbps, 2.0 ch | MVO | ТВЦ
    Аудио 07: Dolby Digital Audio Russian, 448 kbps, 5.1 ch | DVO | П. Гланц и И. Королёва
    Аудио 08: Dolby Digital Audio Russian, 448 kbps, 5.1 ch | Ю. Живов
    Аудио 09: Dolby Digital Audio Russian, 448 kbps, 5.1 ch | А. Гаврилов
    Аудио 10: Dolby Digital Audio Russian, 448 kbps, 5.1 ch | М. Чадов
    Аудио 11: Dolby Digital Audio Ukrainian, 224 kbps, 2.0 ch| MVO | НТН
    Аудио 12: Dolby Digital Audio Russian, 448 kbps, 5.1 ch | Оригинал


    Скриншоты
    [img]http://lostpix.com/img/2016-05/02/dz7t5zkq0qb0w4gjnedqlp970.png[/img][img]http://lostpix.com/img/2016-05/02/u319864wuwuesypyxh4rvlmig.png[/img][img]http://lostpix.com/img/2016-05/02/meh3y0tw8or1bcmvh5kxt85np.png[/img][img]http://lostpix.com/img/2016-05/02/6f39o90w7owpmqtzykgbv15n1.png[/img][img]http://lostpix.com/img/2016-05/02/py3x6fam4ymnlj34a46mpchz1.png[/img][img]http://lostpix.com/img/2016-05/02/mpbsdhx7kfe5xbhg14johksrp.png[/img][img]http://lostpix.com/img/2016-05/02/in1pqx87y20d7t6vfesvlvem4.png[/img][img]http://lostpix.com/img/2016-05/02/8r6u96zi8rc0nqedq9196taf1.png[/img][img]http://lostpix.com/img/2016-05/02/xtec035xyaymrnz6y9yr0rnl7.png[/img][img]http://lostpix.com/img/2016-05/02/tr1m4oh0gfnfe0btwr6dau3l2.png[/img][img]http://lostpix.com/img/2016-05/02/qtwgkjzomzhm7haus8jowicdh.png[/img][img]http://lostpix.com/img/2016-05/02/ndgq7jduxpv6wltd2ki0v2nqz.png[/img][img]http://lostpix.com/img/2016-05/02/manqvw4lbk0g6y9625pxqu29g.png[/img][img]http://lostpix.com/img/2016-05/02/6dmsz2uh6262ca78y8e6x8ecf.png[/img][img]http://lostpix.com/img/2016-05/02/47rxjh28tum2ts78yb81vthqx.png[/img][img]http://lostpix.com/img/2016-05/02/f3k127yj3ihx8qvpsu30y7pwx.png[/img][img]http://lostpix.com/img/2016-05/02/px5u0hybxor5trbuk5tf5xrwf.png[/img][img]http://lostpix.com/img/2016-05/02/ibpt3jpj7yrepya2ptkmq0onz.png[/img][img]http://lostpix.com/img/2016-05/02/xj09ukcjhve87u7mw79pci4hl.png[/img][img]http://lostpix.com/img/2016-05/02/uqtr8cdn32zs086e6qyo94ag6.png[/img][img]http://lostpix.com/img/2016-05/02/orgpw8upikhe0q7hyueftwzmw.png[/img][img]http://lostpix.com/img/2016-05/02/n1ue7judftk4u9ib32s5l4z60.png[/img][img]http://lostpix.com/img/2016-05/02/087pueqayjdtg3akiq9in3t1j.png[/img][img]http://lostpix.com/img/2016-05/02/trgy57j04suowz8ts62tytct5.png[/img][img]http://lostpix.com/img/2016-05/02/pux7asan6scwcks5gj8hf56d0.png[/img][img]http://lostpix.com/img/2016-05/02/k0i6ml9tsop3r0p8uku75xe7w.png[/img][img]http://lostpix.com/img/2016-05/02/dtkpnxq1ebn8noimoicnd5hsr.png[/img]  


    Медиа-Инфо
    raw [info]: 1280x544p 1:1 @ 24000/1001 fps (cfr)
    x264 [info]: using SAR=1/1
    x264 [info]: using cpu capabilities: MMX2 SSE2Fast SSSE3 SSE4.2 AVX
    x264 [info]: profile High, level 4.1
    x264 [info]: frame I:1230  Avg QP:14.86  size:140947
    x264 [info]: frame P:39005 Avg QP:17.64  size: 60663
    x264 [info]: frame B:133117 Avg QP:18.50  size: 33542
    ==============================================================================================================
    Общее
    Уникальный идентификатор                 : 202790700324308818436463398799123543877 (0x98901176DA0F3C84865899F970A9F745)
    Полное имя                               : D:Настоящая любовь_1993-BDRip 720p_ExKinoRay.mkv
    Формат                                   : Matroska
    Версия формата                           : Version 2
    Размер файла                             : 10,2 Гбайт
    Продолжительность                        : 2 ч. 0 м.
    Общий поток                              : 12,0 Мбит/сек
    Дата кодирования                         : UTC 2016-05-02 18:29:20
    Программа кодирования                    : mkvmerge v5.8.0 ("No Sleep / Pillow") built on Sep  2 2012 15:37:04
    Библиотека кодирования                   : libebml v1.2.3 + libmatroska v1.3.0

    Видео
    Идентификатор                            : 1
    Формат                                   : AVC
    Формат/Информация                        : Advanced Video Codec
    Профиль формата                          : High@L4.1
    Параметр CABAC формата                   : Да
    Параметр ReFrames формата                : 12 кадров
    Идентификатор кодека                     : V_MPEG4/ISO/AVC
    Продолжительность                        : 2 ч. 0 м.
    Битрейт                                  : 7750 Кбит/сек
    Ширина                                   : 1280 пикселей
    Высота                                   : 544 пикселя
    Соотношение сторон                       : 2,35:1
    Режим частоты кадров                     : Постоянный
    Частота кадров                           : 23,976 кадра/сек
    Цветовое пространство                    : YUV
    Субдискретизация насыщенности            : 4:2:0
    Битовая глубина                          : 8 бит
    Тип развёртки                            : Прогрессивная
    Бит/(Пиксели*Кадры)                      : 0.464
    Размер потока                            : 6,32 Гбайт (62%)
    Библиотека кодирования                   : x264 core 148 r2638 7599210
    Настройки программы                      : cabac=1 / ref=12 / deblock=1:-3:-3 / analyse=0x3:0x113 / me=umh / subme=10 / psy=1 / psy_rd=0.85:0.10 / mixed_ref=1 / me_range=32 / chroma_me=1 / trellis=2 / 8x8dct=1 / cqm=0 / deadzone=21,11 / fast_pskip=0 / chroma_qp_offset=-3 / threads=12 / lookahead_threads=3 / sliced_threads=0 / nr=0 / decimate=0 / interlaced=0 / bluray_compat=0 / constrained_intra=0 / bframes=10 / b_pyramid=2 / b_adapt=2 / b_bias=0 / direct=3 / weightb=1 / open_gop=0 / weightp=2 / keyint=240 / keyint_min=23 / scenecut=40 / intra_refresh=0 / rc_lookahead=40 / rc=2pass / mbtree=1 / bitrate=7750 / ratetol=1.0 / qcomp=0.75 / qpmin=0 / qpmax=39 / qpstep=4 / cplxblur=20.0 / qblur=0.5 / vbv_maxrate=50000 / vbv_bufsize=62500 / nal_hrd=none / filler=0 / ip_ratio=1.40 / aq=3:0.80
    Язык                                     : English
    Default                                  : Да
    Forced                                   : Нет
    Цветовой диапазон                        : Limited
    Основные цвета                           : BT.709
    Характеристики трансфера                 : BT.709
    Коэффициенты матрицы                     : BT.709

    Аудио #1
    Идентификатор                            : 2
    Формат                                   : AC-3
    Формат/Информация                        : Audio Coding 3
    Расширение режима                        : CM (complete main)
    Параметр Endianness формата              : Big
    Идентификатор кодека                     : A_AC3
    Продолжительность                        : 2 ч. 0 м.
    Вид битрейта                             : Постоянный
    Битрейт                                  : 448 Кбит/сек
    Каналы                                   : 6 каналов
    Расположение каналов                     : Front: L C R, Side: L R, LFE
    Частота                                  : 48,0 КГц
    Метод сжатия                             : С потерями
    Размер потока                            : 387 Мбайт (4%)
    Заголовок                                : MVO-Твистер
    Язык                                     : Russian
    Default                                  : Да
    Forced                                   : Нет

    Аудио #2
    Идентификатор                            : 3
    Формат                                   : AC-3
    Формат/Информация                        : Audio Coding 3
    Расширение режима                        : CM (complete main)
    Параметр Endianness формата              : Big
    Идентификатор кодека                     : A_AC3
    Продолжительность                        : 2 ч. 0 м.
    Вид битрейта                             : Постоянный
    Битрейт                                  : 512 Кбит/сек
    Каналы                                   : 6 каналов
    Расположение каналов                     : Front: L C R, Side: L R, LFE
    Частота                                  : 48,0 КГц
    Метод сжатия                             : С потерями
    Размер потока                            : 443 Мбайт (4%)
    Заголовок                                : MVO-Киномания
    Язык                                     : Russian
    Default                                  : Нет
    Forced                                   : Нет

    Аудио #3
    Идентификатор                            : 4
    Формат                                   : AC-3
    Формат/Информация                        : Audio Coding 3
    Расширение режима                        : CM (complete main)
    Параметр Endianness формата              : Big
    Идентификатор кодека                     : A_AC3
    Продолжительность                        : 2 ч. 0 м.
    Вид битрейта                             : Постоянный
    Битрейт                                  : 224 Кбит/сек
    Каналы                                   : 2 канала
    Расположение каналов                     : Front: L R
    Частота                                  : 48,0 КГц
    Метод сжатия                             : С потерями
    Размер потока                            : 194 Мбайт (2%)
    Заголовок                                : MVO-ДТВ
    Язык                                     : Russian
    Default                                  : Нет
    Forced                                   : Нет

    Аудио #4
    Идентификатор                            : 5
    Формат                                   : AC-3
    Формат/Информация                        : Audio Coding 3
    Расширение режима                        : CM (complete main)
    Параметр Endianness формата              : Big
    Идентификатор кодека                     : A_AC3
    Продолжительность                        : 2 ч. 0 м.
    Вид битрейта                             : Постоянный
    Битрейт                                  : 224 Кбит/сек
    Каналы                                   : 2 канала
    Расположение каналов                     : Front: L R
    Частота                                  : 48,0 КГц
    Метод сжатия                             : С потерями
    Размер потока                            : 194 Мбайт (2%)
    Заголовок                                : MVO-Тивионика
    Язык                                     : Russian
    Default                                  : Нет
    Forced                                   : Нет

    Аудио #5
    Идентификатор                            : 6
    Формат                                   : AC-3
    Формат/Информация                        : Audio Coding 3
    Расширение режима                        : CM (complete main)
    Параметр Endianness формата              : Big
    Идентификатор кодека                     : A_AC3
    Продолжительность                        : 2 ч. 0 м.
    Вид битрейта                             : Постоянный
    Битрейт                                  : 224 Кбит/сек
    Каналы                                   : 2 канала
    Расположение каналов                     : Front: L R
    Частота                                  : 48,0 КГц
    Метод сжатия                             : С потерями
    Размер потока                            : 194 Мбайт (2%)
    Заголовок                                : MVO-5 канал
    Язык                                     : Russian
    Default                                  : Нет
    Forced                                   : Нет

    Аудио #6
    Идентификатор                            : 7
    Формат                                   : AC-3
    Формат/Информация                        : Audio Coding 3
    Расширение режима                        : CM (complete main)
    Параметр Endianness формата              : Big
    Идентификатор кодека                     : A_AC3
    Продолжительность                        : 2 ч. 0 м.
    Вид битрейта                             : Постоянный
    Битрейт                                  : 224 Кбит/сек
    Каналы                                   : 2 канала
    Расположение каналов                     : Front: L R
    Частота                                  : 48,0 КГц
    Метод сжатия                             : С потерями
    Размер потока                            : 194 Мбайт (2%)
    Заголовок                                : MVO-ТВЦ
    Язык                                     : Russian
    Default                                  : Нет
    Forced                                   : Нет

    Аудио #7
    Идентификатор                            : 8
    Формат                                   : AC-3
    Формат/Информация                        : Audio Coding 3
    Расширение режима                        : CM (complete main)
    Параметр Endianness формата              : Big
    Идентификатор кодека                     : A_AC3
    Продолжительность                        : 2 ч. 0 м.
    Вид битрейта                             : Постоянный
    Битрейт                                  : 448 Кбит/сек
    Каналы                                   : 6 каналов
    Расположение каналов                     : Front: L C R, Side: L R, LFE
    Частота                                  : 48,0 КГц
    Метод сжатия                             : С потерями
    Размер потока                            : 387 Мбайт (4%)
    Заголовок                                : DVO-Гланц
    Язык                                     : Russian
    Default                                  : Нет
    Forced                                   : Нет

    Аудио #8
    Идентификатор                            : 9
    Формат                                   : AC-3
    Формат/Информация                        : Audio Coding 3
    Расширение режима                        : CM (complete main)
    Параметр Endianness формата              : Big
    Идентификатор кодека                     : A_AC3
    Продолжительность                        : 2 ч. 0 м.
    Вид битрейта                             : Постоянный
    Битрейт                                  : 448 Кбит/сек
    Каналы                                   : 6 каналов
    Расположение каналов                     : Front: L C R, Side: L R, LFE
    Частота                                  : 48,0 КГц
    Метод сжатия                             : С потерями
    Размер потока                            : 387 Мбайт (4%)
    Заголовок                                : AVO-Живов
    Язык                                     : Russian
    Default                                  : Нет
    Forced                                   : Нет

    Аудио #9
    Идентификатор                            : 10
    Формат                                   : AC-3
    Формат/Информация                        : Audio Coding 3
    Расширение режима                        : CM (complete main)
    Параметр Endianness формата              : Big
    Идентификатор кодека                     : A_AC3
    Продолжительность                        : 2 ч. 0 м.
    Вид битрейта                             : Постоянный
    Битрейт                                  : 448 Кбит/сек
    Каналы                                   : 6 каналов
    Расположение каналов                     : Front: L C R, Side: L R, LFE
    Частота                                  : 48,0 КГц
    Метод сжатия                             : С потерями
    Размер потока                            : 387 Мбайт (4%)
    Заголовок                                : AVO-Гаврилов
    Язык                                     : Russian
    Default                                  : Нет
    Forced                                   : Нет

    Аудио #10
    Идентификатор                            : 11
    Формат                                   : AC-3
    Формат/Информация                        : Audio Coding 3
    Расширение режима                        : CM (complete main)
    Параметр Endianness формата              : Big
    Идентификатор кодека                     : A_AC3
    Продолжительность                        : 2 ч. 0 м.
    Вид битрейта                             : Постоянный
    Битрейт                                  : 448 Кбит/сек
    Каналы                                   : 6 каналов
    Расположение каналов                     : Front: L C R, Side: L R, LFE
    Частота                                  : 48,0 КГц
    Метод сжатия                             : С потерями
    Размер потока                            : 387 Мбайт (4%)
    Заголовок                                : AVO-Чадов
    Язык                                     : Russian
    Default                                  : Нет
    Forced                                   : Нет

    Аудио #11
    Идентификатор                            : 12
    Формат                                   : AC-3
    Формат/Информация                        : Audio Coding 3
    Расширение режима                        : CM (complete main)
    Параметр Endianness формата              : Big
    Идентификатор кодека                     : A_AC3
    Продолжительность                        : 2 ч. 0 м.
    Вид битрейта                             : Постоянный
    Битрейт                                  : 224 Кбит/сек
    Каналы                                   : 2 канала
    Расположение каналов                     : Front: L R
    Частота                                  : 48,0 КГц
    Метод сжатия                             : С потерями
    Размер потока                            : 194 Мбайт (2%)
    Язык                                     : Ukrainian
    Default                                  : Нет
    Forced                                   : Нет

    Аудио #12
    Идентификатор                            : 13
    Формат                                   : AC-3
    Формат/Информация                        : Audio Coding 3
    Расширение режима                        : CM (complete main)
    Параметр Endianness формата              : Big
    Идентификатор кодека                     : A_AC3
    Продолжительность                        : 2 ч. 0 м.
    Вид битрейта                             : Постоянный
    Битрейт                                  : 448 Кбит/сек
    Каналы                                   : 6 каналов
    Расположение каналов                     : Front: L C R, Side: L R, LFE
    Частота                                  : 48,0 КГц
    Метод сжатия                             : С потерями
    Размер потока                            : 387 Мбайт (4%)
    Язык                                     : English
    Default                                  : Нет
    Forced                                   : Нет

    Текст #1
    Идентификатор                            : 14
    Формат                                   : UTF-8
    Идентификатор кодека                     : S_TEXT/UTF8
    Идентификатор кодека/Информация          : UTF-8 Plain Text
    Язык                                     : Russian
    Default                                  : Да
    Forced                                   : Нет

    Текст #2
    Идентификатор                            : 15
    Формат                                   : UTF-8
    Идентификатор кодека                     : S_TEXT/UTF8
    Идентификатор кодека/Информация          : UTF-8 Plain Text
    Язык                                     : English
    Default                                  : Нет
    Forced                                   : Нет

    Меню
    00:00:00.000                             : en:Chapter 1
    00:03:23.119                             : en:Chapter 2
    00:05:49.557                             : en:Chapter 3
    00:08:43.146                             : en:Chapter 4
    00:12:07.893                             : en:Chapter 5
    00:17:37.306                             : en:Chapter 6
    00:19:04.476                             : en:Chapter 7
    00:20:41.949                             : en:Chapter 8
    00:24:28.800                             : en:Chapter 9
    00:32:21.147                             : en:Chapter 10
    00:34:21.559                             : en:Chapter 11
    00:40:24.880                             : en:Chapter 12
    00:41:41.332                             : en:Chapter 13
    00:44:55.651                             : en:Chapter 14
    00:47:10.536                             : en:Chapter 15
    00:58:24.042                             : en:Chapter 16
    01:03:57.542                             : en:Chapter 17
    01:08:01.077                             : en:Chapter 18
    01:11:37.501                             : en:Chapter 19
    01:13:08.258                             : en:Chapter 20
    01:18:40.674                             : en:Chapter 21
    01:24:09.586                             : en:Chapter 22
    01:27:49.222                             : en:Chapter 23
    01:31:53.716                             : en:Chapter 24
    01:33:46.162                             : en:Chapter 25
    01:37:26.381                             : en:Chapter 26
    01:38:37.745                             : en:Chapter 27
    01:43:01.967                             : en:Chapter 28
    01:46:55.117                             : en:Chapter 29
    01:47:48.128                             : en:Chapter 30
    01:48:56.238                             : en:Chapter 31
    01:51:08.411                             : en:Chapter 32
    01:54:12.929                             : en:Chapter 33
    Еще похожие »

    Как скачать?
    1. Качаем UTorrent версии 2.0 и выше отсюда
    2. После установки, жмем на ссылку Скачать торрент.
    3. Открываем его через utorrent.
    4. Ждем пока подключатся участники.
    5. Качаем.


    Комментарии о Настоящая любовь / True Romance | BDRip 720p
    Добавлять комментарии могут только зарегистрированные пользователи

    Зарегистрироваться или Войти


    Ближайшее в кино
    • МУЛЬТ в кино. Выпуск №80. Время открытий дата выхода 15 сентября 2018МУЛЬТ в кино. Выпуск №80. Время открытий
      Дата выхода: 15 сентября 2018
    • 40783|Трудно быть Богом|20 сентября 2018|200|300Трудно быть Богом
      Дата выхода: 20 сентября 2018
    • 463858|Лондонские поля|20 сентября 2018|200|300Лондонские поля
      Дата выхода: 20 сентября 2018
    • 991225|Проклятие монахини|20 сентября 2018|200|300Проклятие монахини
      Дата выхода: 20 сентября 2018
    • 46671|Мой друг Иван Лапшин|20 сентября 2018|200|300Мой друг Иван Лапшин
      Дата выхода: 20 сентября 2018
    • 43332|Проверка на дорогах|20 сентября 2018|200|300Проверка на дорогах
      Дата выхода: 20 сентября 2018
    • 44339|Двадцать дней без войны|20 сентября 2018|200|300Двадцать дней без войны
      Дата выхода: 20 сентября 2018
    • 1068627|Простая просьба|20 сентября 2018|200|300Простая просьба
      Дата выхода: 20 сентября 2018
    • 987695|Бои без правил|20 сентября 2018|200|300Бои без правил
      Дата выхода: 20 сентября 2018
    • 1045478|Агент Джонни Инглиш 3.0|20 сентября 2018|200|300Агент Джонни Инглиш 3.0
      Дата выхода: 20 сентября 2018
    • 1047742|Доминика|20 сентября 2018|200|300Доминика
      Дата выхода: 20 сентября 2018
    • 1031263|Храброе сердце. Заговор в королевстве|20 сентября 2018|200|300Храброе сердце. Заговор в королевстве
      Дата выхода: 20 сентября 2018
    • 1025397|Закону тут не место|20 сентября 2018|200|300Закону тут не место
      Дата выхода: 20 сентября 2018
    • 1111982|Панды 3D|20 сентября 2018|200|300Панды 3D
      Дата выхода: 20 сентября 2018
    • 1115405|Мария до Каллас|20 сентября 2018|200|300Мария до Каллас
      Дата выхода: 20 сентября 2018
    Вверх