• Игры для PS4
  • Игры для PS3
  • Игры для XBOX360
  • Игры для PC
  • Игры для PS2
  • Игры для PSP
  • Для телефонов
  • Музыка
  • Книги / Журналы
  • Обои
  • Опрос
    Удобен ли сайт в использовании?
      0
    • Очень удобен, все понятно1,1,false,300,full
    • Удобен1,2,false,300,full
    • Средне1,3,false,300,full
    • Неудобен, трудно ориентироваться1,4,false,300,full
    • Совсем неудобен1,5,false,300,full
    Статистика
    Всего онлайн -
    Гостей -
    Пользователей -
    Короли трекера
    
    Благодарности () Закрыть
    Информация о фильме
    Название: Мустанг
    Оригинальное название: Mustang
    Год выхода: 2015
    Жанр: драма
    Режиссер: Дениз Гамзе Эргювен / Deniz Gamze Ergven
    В ролях: Гюнеш Шенсой, Дога Зейнеп Догуслу, Элит Ишчан, Тугба Сунгуроглу, Илаида Акдоган, Нихал Г. Колдаш, Айберк Пекджан, Бахар Керимоглу, Бурак Йийит, Эрол Афсин

    О фильме:
    В деревне на севере Турции пятеро сестер-подростков возвращаются из школы, беззаботно резвясь с мальчишками. Консервативные воспитатели считают эти невинные игры непозволительными и всерьез берутся за воспитание девушек. Жизнь юных сестер круто меняется: дом становится тюрьмой, школу заменяют уроки домашнего хозяйства, начинаются приготовления к принудительным свадьбам. Но жизнелюбивые девушки не собираются мириться с традициями, ограничивающими их свободу.



    Страна: Турция, Франция, Катар, Германия
    Студия: CG Cinma, Vistamar Filmproduktion, Uhlandfilm
    Продолжительность: 01:37:03
    Перевод: Профессиональный (многоголосый закадровый) | iTunes

    Файл
    Формат: AVI
    Качество: HDRip
    Видео: XviD, 688x288, 24 fps, 933 kbps
    Звук: MP3, 2 ch, ~128 Kbps



    MediaInfo
    Общее
    Полное имя                               : Mustang.2015.HDRip.745MB.MegaPeer.avi
    Формат                                   : AVI
    Формат/Информация                        : Audio Video Interleave
    Размер файла                             : 743 Мбайт
    Продолжительность                        : 1 ч. 37 м.
    Общий поток                              : 1071 Кбит/сек
    Программа кодирования                    : VirtualDubMod 1.5.10.3 | www.virtualdub-fr.org || (build 2550/release)
    Библиотека кодирования                   : VirtualDubMod build 2550/release

    Видео
    Идентификатор                            : 0
    Формат                                   : MPEG-4 Visual
    Профиль формата                          : Advanced Simple@L5
    Параметр BVOP формата                    : 1
    Параметр QPel формата                    : Нет
    Параметр GMC формата                     : Без точки перехода
    Параметр матрицы формата                 : Выборочная
    Идентификатор кодека                     : XVID
    Идентификатор кодека/Подсказка           : XviD
    Продолжительность                        : 1 ч. 37 м.
    Битрейт                                  : 933 Кбит/сек
    Ширина                                   : 688 пикселей
    Высота                                   : 288 пикселей
    Соотношение сторон                       : 2,40:1
    Частота кадров                           : 24,000 кадра/сек
    Цветовое пространство                    : YUV
    Субдискретизация насыщенности            : 4:2:0
    Битовая глубина                          : 8 бит
    Тип развёртки                            : Прогрессивная
    Метод сжатия                             : С потерями
    Бит/(Пиксели*Кадры)                      : 0.196
    Размер потока                            : 648 Мбайт (87%)
    Библиотека кодирования                   : XviD 73

    Аудио
    Идентификатор                            : 1
    Формат                                   : MPEG Audio
    Версия формата                           : Version 1
    Профиль формата                          : Layer 3
    Идентификатор кодека                     : 55
    Идентификатор кодека/Подсказка           : MP3
    Продолжительность                        : 1 ч. 37 м.
    Вид битрейта                             : Постоянный
    Битрейт                                  : 128 Кбит/сек
    Каналы                                   : 2 канала
    Частота                                  : 48,0 КГц
    Метод сжатия                             : С потерями
    Размер потока                            : 88,8 Мбайт (12%)
    Выравнивание                             : Соединение по промежуткам
    Продолжительность промежутка             : 42  мс. (1,00 видеокадр)
    Время предзагрузки промежутка            : 504  мс.
    Библиотека кодирования                   : LAME3.99r
    Настройки программы                      : -m s -V 4 -q 2 -lowpass 17 -b 128

    Свернуть
    Похожие раздачи Искать похожие
    Инструкция по скачиванию
     1  Качаем uTorrent версии 2.0 и выше
     2  После установки, жмем выше под постером на ссылку Скачать [MediaGet] или Скачать .torrent
     3  Открываем скачанный файл через соответствующий клиент: MediaGet или uTorrent
     4  Ждем пока подключатся участники
     5  Качаем
    Комментарии о  Мустанг / Mustang | HDRip 
    Ближайшее в кино
    Вверх