• Игры для PS4
  • Игры для PS3
  • Игры для XBOX360
  • Игры для PC
  • Игры для PS2
  • Игры для PSP
  • Для телефонов
  • Музыка
  • Книги / Журналы
  • Обои
  • Опрос
    Откуда Вы о нас узнали?
      0
    • От знакомых2,1,false,300,full
    • Из социальных сетей2,2,false,300,full
    • Из поисковых систем2,3,false,300,full
    • Другое2,4,false,300,full
    Статистика
    Всего онлайн -
    Гостей -
    Пользователей -
    Короли трекера
    Благодарности () Закрыть
    Название: Michael Schenker - High Voltage Festival 2011
    Исполнитель: Michael Schenker
    Год выпуска: 2012
    Жанр:  Hard Rock
    Продолжительность: 00:23:35

    Описание: High Voltage Festival бонус к диску Michael Schenker: Temple of Rock - Live In Europe (2012)

    Треклист:
    (High Voltage Festival, Лондон, 24.07.2011)
    01. Armed And Ready
    02. Another Piece Of Meat
    03. Rock You Like A Hurricane (with Rudolf Schenker)
    04. Hanging On (with Rudolf Schenker)
    05. Doctor Doctor (with Jeff Scott Soto)

    Качество: BDRip 1080p
    Формат: MKV
    Видео кодек: H264
    Аудио кодек: DTS, PCM
    Видео: MPEG4 Video (H264), 1920x1080, 29.97fps, 12.7 Mbps
    Аудио: DTS, 48000 Hz, 4ch, 1509 kbps
    Аудио: PCM, 48000 Hz, 2ch, 1536 kbps

    Сэмпл

    MediaInfo
    General
    Unique ID                      : 236517298426596367070362548088262100508 (0xB1EF9322321B3B4A87550A900F94061C)
    Complete name                  : F:DVDRip2011.M.S.G.High.Voltage.Festival.renta23.mkv
    Format                         : Matroska
    Format version                 : Version 4 / Version 2
    File size                      : 2.59 GiB
    Duration                       : 23mn 35s
    Overall bit rate               : 15.7 Mbps
    Movie name                     : 2011 Michael Schenker - High Voltage Festival / renta23
    Encoded date                   : UTC 2016-05-02 21:24:21
    Writing application            : mkvmerge v8.3.0 ("Over the Horizon") 64bit
    Writing library                : libebml v1.3.1 + libmatroska v1.4.2

    Video
    ID                             : 1
    Format                         : AVC
    Format/Info                    : Advanced Video Codec
    Format profile                 : High@L4.1
    Format settings, CABAC         : Yes
    Format settings, ReFrames      : 4 frames
    Codec ID                       : V_MPEG4/ISO/AVC
    Duration                       : 23mn 35s
    Bit rate                       : 12.7 Mbps
    Width                          : 1 920 pixels
    Height                         : 1 080 pixels
    Display aspect ratio           : 16:9
    Frame rate mode                : Constant
    Frame rate                     : 29.970 (30000/1001) fps
    Color space                    : YUV
    Chroma subsampling             : 4:2:0
    Bit depth                      : 8 bits
    Scan type                      : Progressive
    Bits/(Pixel*Frame)             : 0.204
    Stream size                    : 2.09 GiB (81%)
    Title                          : 2011 Michael Schenker - High Voltage Festival
    Writing library                : x264 core 146 r2538 121396c
    Encoding settings              : cabac=1 / ref=4 / deblock=1:-1:-1 / analyse=0x3:0x133 / me=umh / subme=11 / psy=1 / psy_rd=1.07:0.23 / mixed_ref=1 / me_range=24 / chroma_me=1 / trellis=2 / 8x8dct=1 / cqm=0 / deadzone=21,11 / fast_pskip=0 / chroma_qp_offset=-3 / threads=12 / lookahead_threads=3 / sliced_threads=0 / nr=0 / decimate=1 / interlaced=0 / bluray_compat=0 / constrained_intra=0 / bframes=10 / b_pyramid=2 / b_adapt=2 / b_bias=0 / direct=3 / weightb=1 / open_gop=0 / weightp=2 / keyint=250 / keyint_min=25 / scenecut=40 / intra_refresh=0 / rc=2pass / mbtree=0 / bitrate=12700 / ratetol=1.0 / qcomp=0.60 / qpmin=0 / qpmax=69 / qpstep=4 / cplxblur=20.0 / qblur=0.5 / ip_ratio=1.40 / pb_ratio=1.30 / aq=2:1.00
    Language                       : English
    Default                        : Yes
    Forced                         : No

    Audio #1
    ID                             : 2
    Format                         : DTS
    Format/Info                    : Digital Theater Systems
    Mode                           : 16
    Format settings, Endianness    : Big
    Codec ID                       : A_DTS
    Duration                       : 23mn 35s
    Bit rate mode                  : Constant
    Bit rate                       : 1 509 Kbps
    Channel(s)                     : 6 channels
    Channel positions              : Front: L C R, Side: L R, LFE
    Sampling rate                  : 48.0 KHz
    Frame rate                     : 93.750 fps (512 spf)
    Bit depth                      : 24 bits
    Compression mode               : Lossy
    Stream size                    : 255 MiB (10%)
    Title                          : DTS 5.1
    Language                       : English
    Default                        : Yes
    Forced                         : No

    Audio #2
    ID                             : 3
    Format                         : PCM
    Codec ID                       : A_PCM/INT/LIT
    Duration                       : 23mn 35s
    Bit rate mode                  : Constant
    Bit rate                       : 1 536 Kbps
    Channel(s)                     : 2 channels
    Sampling rate                  : 48.0 KHz
    Frame rate                     : 32.000 fps (1500 spf)
    Bit depth                      : 16 bits
    Stream size                    : 259 MiB (10%)
    Title                          : PCM Stereo
    Language                       : English
    Default                        : No
    Forced                         : No

    Menu
    00:00:00.000                   : en:Chapter 01
    00:04:38.978                   : en:Chapter 02
    00:08:20.199                   : en:Chapter 03
    00:13:01.280                   : en:Chapter 04
    00:17:42.861                   : en:Chapter 05

    Свернуть


    [img]http://i77.fastpic.ru/big/2016/0503/22/3d54c66f628d186ea12768ff27c57222.png[/img][img]http://i80.fastpic.ru/big/2016/0503/45/01dc710900beddf10eb340fe96e66445.png[/img][img]http://i79.fastpic.ru/big/2016/0503/e9/c377cdfe6cb64e35a363f0a640f7d1e9.png[/img][img]http://i77.fastpic.ru/big/2016/0503/d9/490f3e3201e0920d4323f8715a7aa8d9.png[/img]
    [img]http://i77.fastpic.ru/big/2016/0503/f8/1b872dc10a2afbf9e3d35404ebe487f8.png[/img][img]http://i80.fastpic.ru/big/2016/0503/3a/4593d8ee58aa30638165b14c23a2073a.png[/img][img]http://i79.fastpic.ru/big/2016/0503/6d/7bf58a2372faf8f549bbfd28d0a1bf6d.png[/img][img]http://i79.fastpic.ru/big/2016/0503/9d/99aab47dea74169aed7510c0bcb4909d.png[/img]
    Похожие раздачи Искать похожие
    Инструкция по скачиванию
     1  Качаем uTorrent версии 2.0 и выше
     2  После установки, жмем выше под постером на ссылку Скачать [MediaGet] или Скачать .torrent
     3  Открываем скачанный файл через соответствующий клиент: MediaGet или uTorrent
     4  Ждем пока подключатся участники
     5  Качаем
    Комментарии о  Michael Schenker - High Voltage Festival 
    Ближайшее в кино
    Вверх