• Игры для PS4
  • Игры для PS3
  • Игры для XBOX360
  • Игры для PC
  • Игры для PS2
  • Игры для PSP
  • Для телефонов
  • Музыка
  • Книги / Журналы
  • Обои
  • Опрос
    Откуда Вы о нас узнали?
      0
    • От знакомых2,1,false,300,full
    • Из социальных сетей2,2,false,300,full
    • Из поисковых систем2,3,false,300,full
    • Другое2,4,false,300,full
    Статистика
    Всего онлайн -
    Гостей -
    Пользователей -
    Короли трекера
    
    Благодарности () Закрыть
    Информация о фильме
    Название: Игра Джокера
    Оригинальное название: Joker Game
    Год выхода: 2016
    Жанр: приключения, детектив
    Режиссер: Номура Кадзуя
    Художник: Таниока Ёсио, Нарита Ихо
    В ролях: Хориути Кэнъю, Симоно Хиро, Сэки Томокадзу, Кимура Рёхэй, Хосоя Ёсимаса, Морикава Тосиюки, Кадзи Юки, Фукуяма Дзюн, Накай Кадзуя, Сакурай Такахиро, Цуда Кэндзиро, Гэнда Тэссё, Тонэ Кэнтаро

    О фильме:
    Организация под названием «Агентство Д» создана осенью 1937 года в качестве независимого армейского подразделения по личной инициативе подполковника Юки. По слухам, Юки сам в прошлом был хорошим агентом и добыл у врага немало секретов, пока его не предал союзник. До побега из плена подполковника жестоко пытали, чем объясняется отсутствие левой руки и то, что он ходит с тростью, прихрамывая на левую ногу. Получив прозвище «Властелин тьмы», Юки учит солдат по принципам, которые сильно отличаются от традиционной армейской мудрости. Игнорируя армейские ранги, одежду и поведение, он учит своих подопечных быть незаметными и невидимыми, а также берёт кандидатов издалека, тренируя специалистов нескольким языкам, взлому и мастерству скрытности. Под фальшивыми личинами его агенты выполняют миссии по всей Азии.

    World Art | MAL

    Страна: Япония
    Студия: Production I.G
    Продолжительность: 00:24:00
    Язык: Русский, Японский
    Перевод: Любительский (двухголосый, закадровый)

    Файл
    Качество: HDTVRip
    Формат: MKV
    Кодек: H.264
    Видео: 1280x720, 23.976 fps, 1900 kbps
    Звук: Аудио кодек: AAC
    Аудио RUS: 48.0 kHz, AAC, 2 ch, 192 kbps - SHIZA Project
    Аудио JAP: 48.0 kHz, AAC, 2 ch, 192 kbps
    Субтитры: русские (встроенные полный перевод, ASS) - YakuSub Studio

    Озвучивание: Dancel, Tomoko
    Перевод: AOS
    Тайминг и работа со звуком: Мисари, Daelit

    Скриншоты
    [screen]http://s011.radikal.ru/i318/1604/24/98df683d5a08.png[/screen][screen]http://s019.radikal.ru/i617/1604/90/c4b496ff631e.png[/screen][screen]http://s020.radikal.ru/i719/1604/b6/0adb51265213.png[/screen][screen]http://i057.radikal.ru/1604/89/9df9cfd7c591.png[/screen][screen]http://s010.radikal.ru/i314/1604/d8/8af5a2ccefa9.png[/screen]
    Свернуть


    Список серий
    01. Игра Джокера: Часть Первая
    02. Игра Джокера: Часть Вторая
    03. Просчёт
    04. Город соблазнов
    Свернуть


    MediaInfo
    General
    Format : Matroska
    Format version : Version 4 / Version 2
    File size : 407 MiB
    Duration : 24mn 0s
    Overall bit rate : 2 369 Kbps
    Encoded date : UTC 2016-04-15 16:11:35
    Writing application : mkvmerge v8.3.0 ("Over the Horizon") 64bit
    Writing library : libebml v1.3.1 + libmatroska v1.4.2

    Video
    ID : 1
    Format : AVC
    Format/Info : Advanced Video Codec
    Format profile : High@L4.1
    Format settings, CABAC : Yes
    Format settings, ReFrames : 4 frames
    Codec ID : V_MPEG4/ISO/AVC
    Duration : 24mn 0s
    Bit rate : 1 908 Kbps
    Width : 1 280 pixels
    Height : 720 pixels
    Display aspect ratio : 16:9
    Frame rate mode : Constant
    Frame rate : 23.976 (24000/1001) fps
    Color space : YUV
    Chroma subsampling : 4:2:0
    Bit depth : 8 bits
    Scan type : Progressive
    Bits/(Pixel*Frame) : 0.086
    Stream size : 328 MiB (81%)
    Writing library : x264 core 129 r2245+729M 1a52e03
    Encoding settings : cabac=1 / ref=4 / deblock=1:1:-1 / analyse=0x3:0x113 / me=umh / subme=9 / psy=1 / fade_compensate=0.00 / psy_rd=1.00:0.00 / mixed_ref=1 / me_range=24 / chroma_me=1 / trellis=2 / 8x8dct=1 / cqm=0 / deadzone=21,11 / fast_pskip=1 / chroma_qp_offset=-2 / threads=8 / lookahead_threads=1 / sliced_threads=0 / nr=0 / decimate=1 / interlaced=0 / bluray_compat=0 / constrained_intra=0 / fgo=0 / bframes=9 / b_pyramid=2 / b_adapt=2 / b_bias=0 / direct=1 / weightb=1 / open_gop=0 / weightp=2 / keyint=240 / keyint_min=24 / scenecut=40 / intra_refresh=0 / rc=crf / mbtree=0 / crf=18.0 / qcomp=0.72 / qpmin=0 / qpmax=69 / qpstep=4 / ip_ratio=1.40 / pb_ratio=1.30 / aq=1:0.85
    Language : Japanese
    Default : Yes
    Forced : No
    Color range : Limited
    Color primaries : BT.709
    Transfer characteristics : BT.709
    Matrix coefficients : BT.709

    Audio #1
    ID : 2
    Format : AAC
    Format/Info : Advanced Audio Codec
    Format profile : LC
    Codec ID : A_AAC
    Duration : 23mn 59s
    Bit rate : 96.0 Kbps
    Channel(s) : 2 channels
    Channel positions : Front: L R
    Sampling rate : 48.0 KHz
    Frame rate : 46.875 fps (1024 spf)
    Compression mode : Lossy
    Stream size : 16.5 MiB (4%)
    Title : AniDub
    Language : Russian
    Default : Yes
    Forced : No

    Audio #2
    ID : 3
    Format : AAC
    Format/Info : Advanced Audio Codec
    Format profile : LC
    Codec ID : A_AAC
    Duration : 23mn 59s
    Bit rate : 168 Kbps
    Channel(s) : 2 channels
    Channel positions : Front: L R
    Sampling rate : 48.0 KHz
    Frame rate : 46.875 fps (1024 spf)
    Compression mode : Lossy
    Delay relative to video : 9ms
    Stream size : 28.8 MiB (7%)
    Title : SHIZA Project
    Language : Russian
    Default : No
    Forced : No

    Audio #3
    ID : 4
    Format : AAC
    Format/Info : Advanced Audio Codec
    Format profile : LC
    Codec ID : A_AAC
    Duration : 23mn 59s
    Bit rate : 192 Kbps
    Channel(s) : 2 channels
    Channel positions : Front: L R
    Sampling rate : 48.0 KHz
    Frame rate : 46.875 fps (1024 spf)
    Compression mode : Lossy
    Stream size : 32.8 MiB (8%)
    Title : Original
    Language : Japanese
    Default : No
    Forced : No

    Text
    ID : 5
    Format : ASS
    Codec ID : S_TEXT/ASS
    Codec ID/Info : Advanced Sub Station Alpha
    Duration : 23mn 38s
    Bit rate : 1 853 bps
    Count of elements : 2207
    Compression mode : Lossless
    Stream size : 321 KiB (0%)
    Title : Полные субтитры
    Language : Russian
    Default : Yes
    Forced : No
    Свернуть
    Инструкция по скачиванию
     1  Качаем uTorrent версии 2.0 и выше
     2  После установки, жмем выше под постером на ссылку Скачать [MediaGet] или Скачать .torrent
     3  Открываем скачанный файл через соответствующий клиент: MediaGet или uTorrent
     4  Ждем пока подключатся участники
     5  Качаем
    Комментарии о  Игра Джокера / Joker Game [Серии 01-04 из 12] | HDTVRip 
    Ближайшее в кино
    Вверх