• Игры для PS4
  • Игры для PS3
  • Игры для XBOX360
  • Игры для PC
  • Игры для PS2
  • Игры для PSP
  • Для телефонов
  • Музыка
  • Книги/Журналы
  • Обои
  •  
    Опрос
    Откуда Вы о нас узнали?
      0
    • От знакомых2,1,false,300,full
    • Из социальных сетей2,2,false,300,full
    • Из поисковых систем2,3,false,300,full
    • Другое2,4,false,300,full
    Статистика
    Загрузка...
    Короли трекера
    Необратимость / Irreversible | BDRip-AVC
    Статус  Проверено
    В закладки
    Модератор: Max

    Необратимость / Irreversible | BDRip-AVC [Фильмы 2002] скачать торрентом/torrent бесплатно

    Год выхода
    Язык
    Закачал
    Аноним | 03 мая 2016 в 10ч 32м 16с
    Раздел
    Отзывов
    0
    Раздают: 4 Качают: 2 Скачали: 5 Размер: 2.18 GB
    Инфо о раздаче | Благодарности |
    0/5
    0
    0 5 0
    Поддержи нас — расскажи друзьям!
    Orbitum
    Новый интернет-браузер Быстрее загружает сайты Экономит интернет—трафик Меняет оформление страницы ВК Блокирует всю рекламу на сайтах Загружает торренты как

    µTorrent

    клиент
    Объеденяет все твои чаты из соц. сетей в один Проигрывает твою музыку не заходя во ВКонтакте
    Скачать и многое другое... Подробности на сайте производителя
    Производство: Франция, StudioCanal
    Жанр:  Триллер, Драма, Детектив, Криминал

    Режиссер: Гаспар Ноэ
    Актеры: Моника Беллуччи, Венсан Кассель, Альбер Дюпонтель, Джо Престиа, Филипп Наон, Стефан Друо, Жан-Луи Кост, Мишель Гондуэн, Мурад Хима

    Описание:
    История раскручивается из конца в начало. Темнота ночи, багровые отблески на стенах притона, бледные, как простыня, лица. Герой мечется в лабиринте лестниц и переходов одного из подпольных гей-клубов. Цель — найти и убить человека, которого он никогда даже не видел в глаза. Но у него есть веская причина ненавидеть: незнакомец до смерти изнасиловал его подругу, с которой случайно столкнулся в безлюдном городском переходе…


    Внимание! Фильм содержит сцены насилия!
    Возрастное ограничение: 18+


    Продолжительность: 01:33:32
    Качество видео: BDRip-AVC
    Перевод: Профессиональный (двухголосый, закадровый)
    Субтитры: Английские (отключаемые)

    Видео: AVC, 1024x456 (2.25:1), 25 fps, 2 436 Kbps (0.209 bit/pixel)
    Аудио #1: AC-3, 48.0 KHz, 6 ch, 448 Kbps, CBR (Russian)
    Аудио #2: AC-3, 48.0 KHz, 6 ch, 448 Kbps, CBR (French)

    Mediainfo
    Формат                                   : Matroska
    Версия формата                           : Version 2
    Размер файла                             : 2,18 Гбайт
    Продолжительность                        : 1 ч. 33 м.
    Общий поток                              : 3332 Кбит/сек
    Дата кодирования                         : UTC 2016-05-03 05:34:15
    Программа кодирования                    : mkvmerge v5.3.0 ("I could have danced") built on Feb  9 2012 10:38:07
    Библиотека кодирования                   : libebml v1.2.3 + libmatroska v1.3.0
    Attachment                               : Yes

    Видео
    Идентификатор                            : 1
    Формат                                   : AVC
    Формат/Информация                        : Advanced Video Codec
    Профиль формата                          : High@L4.1
    Параметр CABAC формата                   : Да
    Параметр ReFrames формата                : 9 кадров
    Идентификатор кодека                     : V_MPEG4/ISO/AVC
    Продолжительность                        : 1 ч. 33 м.
    Битрейт                                  : 2436 Кбит/сек
    Ширина                                   : 1024 пикселя
    Высота                                   : 456 пикселей
    Соотношение сторон                       : 2,25:1
    Режим частоты кадров                     : Постоянный
    Частота кадров                           : 25,000 кадров/сек
    Цветовое пространство                    : YUV
    Субдискретизация насыщенности            : 4:2:0
    Битовая глубина                          : 8 бит
    Тип развёртки                            : Прогрессивная
    Бит/(Пиксели*Кадры)                      : 0.209
    Размер потока                            : 1,55 Гбайт (71%)
    Библиотека кодирования                   : x264 core 146 r2538 121396c
    Настройки программы                      : cabac=1 / ref=9 / deblock=1:-3:-3 / analyse=0x3:0x133 / me=umh / subme=10 / psy=1 / psy_rd=0.99:0.15 / mixed_ref=1 / me_range=32 / chroma_me=1 / trellis=2 / 8x8dct=1 / cqm=0 / deadzone=21,11 / fast_pskip=0 / chroma_qp_offset=-3 / threads=12 / lookahead_threads=2 / sliced_threads=0 / nr=0 / decimate=0 / interlaced=0 / bluray_compat=0 / constrained_intra=0 / bframes=8 / b_pyramid=2 / b_adapt=2 / b_bias=0 / direct=3 / weightb=1 / open_gop=0 / weightp=2 / keyint=240 / keyint_min=23 / scenecut=40 / intra_refresh=0 / rc=2pass / mbtree=0 / bitrate=2436 / ratetol=1.0 / qcomp=0.60 / qpmin=0 / qpmax=69 / qpstep=4 / cplxblur=20.0 / qblur=0.5 / ip_ratio=1.40 / pb_ratio=1.30 / aq=1:0.90
    Default                                  : Да
    Forced                                   : Нет

    Аудио #1
    Идентификатор                            : 2
    Формат                                   : AC-3
    Формат/Информация                        : Audio Coding 3
    Расширение режима                        : CM (complete main)
    Параметр Endianness формата              : Big
    Идентификатор кодека                     : A_AC3
    Продолжительность                        : 1 ч. 33 м.
    Вид битрейта                             : Постоянный
    Битрейт                                  : 448 Кбит/сек
    Каналы                                   : 6 каналов
    Расположение каналов                     : Front: L C R, Side: L R, LFE
    Частота                                  : 48,0 КГц
    Битовая глубина                          : 16 бит
    Метод сжатия                             : С потерями
    Размер потока                            : 300 Мбайт (13%)
    Язык                                     : Russian
    Default                                  : Да
    Forced                                   : Нет

    Аудио #2
    Идентификатор                            : 3
    Формат                                   : AC-3
    Формат/Информация                        : Audio Coding 3
    Расширение режима                        : CM (complete main)
    Параметр Endianness формата              : Big
    Идентификатор кодека                     : A_AC3
    Продолжительность                        : 1 ч. 33 м.
    Вид битрейта                             : Постоянный
    Битрейт                                  : 448 Кбит/сек
    Каналы                                   : 6 каналов
    Расположение каналов                     : Front: L C R, Side: L R, LFE
    Частота                                  : 48,0 КГц
    Битовая глубина                          : 16 бит
    Метод сжатия                             : С потерями
    Размер потока                            : 300 Мбайт (13%)
    Язык                                     : French
    Default                                  : Нет
    Forced                                   : Нет

    Текст #1
    Идентификатор                            : 4
    Формат                                   : UTF-8
    Идентификатор кодека                     : S_TEXT/UTF8
    Идентификатор кодека/Информация          : UTF-8 Plain Text
    Язык                                     : English
    Default                                  : Нет
    Forced                                   : Нет

    Текст #2
    Идентификатор                            : 5
    Формат                                   : UTF-8
    Идентификатор кодека                     : S_TEXT/UTF8
    Идентификатор кодека/Информация          : UTF-8 Plain Text
    Язык                                     : English
    Default                                  : Да
    Forced                                   : Нет

    Меню
    00:00:00.000                             : en:00:00:00.000
    00:04:28.320                             : en:00:04:28.320
    00:08:08.600                             : en:00:08:08.600
    00:11:44.040                             : en:00:11:44.040
    00:14:51.920                             : en:00:14:51.920
    00:18:28.880                             : en:00:18:28.880
    00:24:29.280                             : en:00:24:29.280
    00:29:41.520                             : en:00:29:41.520
    00:34:10.480                             : en:00:34:10.480
    00:40:53.000                             : en:00:40:53.000
    00:53:57.880                             : en:00:53:57.880
    00:58:42.200                             : en:00:58:42.200
    01:06:19.360                             : en:01:06:19.360
    01:15:22.600                             : en:01:15:22.600
    01:28:04.440                             : en:01:28:04.440
    01:33:15.160                             : en:01:33:15.160


    Скриншоты:
    [img]http://lostpix.com/img/2016-05/03/vj6c49dgdtzk3i3615g09mtas.png[/img][img]http://lostpix.com/img/2016-05/03/58wx63jfxl0wpfz96a1d4v5x3.png[/img][img]http://lostpix.com/img/2016-05/03/4wemxhuj5pceu1ptm6zb4vcuy.png[/img]
    Еще похожие »

    Как скачать?
    1. Качаем UTorrent версии 2.0 и выше отсюда
    2. После установки, жмем на ссылку Скачать торрент.
    3. Открываем его через utorrent.
    4. Ждем пока подключатся участники.
    5. Качаем.


    Комментарии о Необратимость / Irreversible | BDRip-AVC
    Добавлять комментарии могут только зарегистрированные пользователи

    Зарегистрироваться или Войти


    Ближайшее в кино
    • Безумие Георга III дата выхода 20 ноября 2018Безумие Георга III
      Дата выхода: 20 ноября 2018
    • 7226|Догвилль|22 ноября 2018|200|300Догвилль
      Дата выхода: 22 ноября 2018
    • 1009784|Апгрейд|22 ноября 2018|200|300Апгрейд
      Дата выхода: 22 ноября 2018
    • 988782|Ральф против интернета|22 ноября 2018|200|300Ральф против интернета
      Дата выхода: 22 ноября 2018
    • 965901|Вдовы|22 ноября 2018|200|300Вдовы
      Дата выхода: 22 ноября 2018
    • 1011685|Нация убийц|22 ноября 2018|200|300Нация убийц
      Дата выхода: 22 ноября 2018
    • 891414|Жена|22 ноября 2018|200|300Жена
      Дата выхода: 22 ноября 2018
    • 934207|Мотылёк|22 ноября 2018|200|300Мотылёк
      Дата выхода: 22 ноября 2018
    • 1044912|Вечерняя школа|22 ноября 2018|200|300Вечерняя школа
      Дата выхода: 22 ноября 2018
    • 1036188|Быть Астрид Линдгрен|22 ноября 2018|200|300Быть Астрид Линдгрен
      Дата выхода: 22 ноября 2018
    • 1048852|Помешанный на времени|22 ноября 2018|200|300Помешанный на времени
      Дата выхода: 22 ноября 2018
    • 1049775|Подбросы|22 ноября 2018|200|300Подбросы
      Дата выхода: 22 ноября 2018
    • 1108741|Я — миллиардер|22 ноября 2018|200|300Я — миллиардер
      Дата выхода: 22 ноября 2018
    • 1118041|Три лица|22 ноября 2018|200|300Три лица
      Дата выхода: 22 ноября 2018
    • 1209190|МУЛЬТ в кино. Выпуск 85. Мамин праздник|24 ноября 2018|200|300МУЛЬТ в кино. Выпуск 85. Мамин праздник
      Дата выхода: 24 ноября 2018
    Вверх