• Игры для PS4
  • Игры для PS3
  • Игры для XBOX360
  • Игры для PC
  • Игры для PS2
  • Игры для PSP
  • Для телефонов
  • Музыка
  • Книги/Журналы
  • Обои
  •  
    Опрос
    Откуда Вы о нас узнали?
      0
    • От знакомых2,1,false,300,full
    • Из социальных сетей2,2,false,300,full
    • Из поисковых систем2,3,false,300,full
    • Другое2,4,false,300,full
    Статистика
    Загрузка...
    Настоящая МакКой / The Real McCoy | DVDRip-AVC
    Статус  Проверено
    В закладки
    Модератор: Max

    Настоящая МакКой / The Real McCoy | DVDRip-AVC [Фильмы 1993] скачать торрентом/torrent бесплатно

    Год выхода
    Язык
    Закачал
    Аноним | 03 мая 2016 в 11ч 13м 41с
    Раздел
    Отзывов
    0
    Раздают: 5 Качают: 6 Скачали: 7 Размер: 3.48 GB
    Инфо о раздаче | Благодарности |
    0/5
    0
    0 5 0
    Поддержи нас — расскажи друзьям!
    Orbitum
    Новый интернет-браузер Быстрее загружает сайты Экономит интернет—трафик Меняет оформление страницы ВК Блокирует всю рекламу на сайтах Загружает торренты как

    µTorrent

    клиент
    Объеденяет все твои чаты из соц. сетей в один Проигрывает твою музыку не заходя во ВКонтакте
    Скачать и многое другое... Подробности на сайте производителя
    Оригинальное название: The Real McCoy
    Год выхода: 1993
    Страна: США
    Студия: Bregman/Baer Productions, Capella International, Connexion Film Productions
    Продолжительность: 01:45:10
    Жанр: триллер, драма, криминал, ...
    Режиссер: Рассел Малкэй
    В ролях: Ким Бейсингер, Вэл Килмер, Теренс Стэмп, Гейлард Сартейн, Зэк Инглиш, Рейнор Шайни, Дебора Хобарт, Памела Стаббарт, Энди Стал, Дин Рэдер-Дювалл, ...

    Перевод:
    - Профессиональный (многоголосный, закадровый) R5
    - Профессиональный (двуголосый, закадровый) НТВ (Андрей Ярославцев и Людмила Гнилова)
    - Профессиональный (двуголосый, закадровый) TV Перец / РенТВ (Елена и Алексей Борзуновы)
    - Авторский (одноголосый, закадровый) Живов Юрий Викторович
    - Авторский (одноголосый, закадровый) Горчаков Василий Овидиевич
    - Авторский (одноголосый, закадровый) Гаврилов Андрей Юрьевич
    - Авторский (одноголосый, закадровый) Кузнецов Сергей
    - Авторский (одноголосый, закадровый) Володарский Леонид Вениаминович
    Субтитры

    О фильме: Молодая очаровательная женщина Кэрин МакКой была схвачена, когда грабила банк. Не впервые она совершала подобное преступление… Отсидев положенный срок, Кэрин вышла на свободу с желанием начать новую жизнь вместе со своим маленьким сыном.
    Однако кое-кому не давали покоя ее уникальные способности удачно проворачивать криминальные операции по взлому неприступных финансовых крепостей. И нашлись мастера шантажа, похитившие сына Кэрин, чтобы заставить ее пойти на новое дело, на очередное ограбление очередного банка…



    Кодек: x264
    Качество: DVDRip-AVC
    Видео: 720x380 , 2500 kbps, 23,976 fps
    Аудио #1: AC-3, 6 ch, 448 kbps (Rus) - MVO R5
    Аудио #2: AC-3, 2 ch, 192 kbps (Rus) - DVO НТВ (Андрей Ярославцев и Людмила Гнилова)
    Аудио #3: AC-3, 2 ch, 192 kbps (Rus) - DVO TV Перец / РенТВ (Елена и Алексей Борзуновы)
    Аудио #4: AC-3, 2 ch, 192 kbps (Rus) - AVO Живов Юрий Викторович
    Аудио #5: AC-3, 2 ch, 192 kbps (Rus) - AVO Горчаков Василий Овидиевич
    Аудио #6: AC-3, 2 ch, 192 kbps (Rus) - AVO Гаврилов Андрей Юрьевич
    Аудио #7: AC-3, 2 ch, 192 kbps (Rus) - AVO Кузнецов Сергей
    Аудио #8: AC-3, 6 ch, 448 kbps (Eng)
    Субтитры: Русские, Английские
    Аудио #9: AC-3, 2 ch, 192 kbps (Rus) - AVO Володарский Леонид Вениаминович (отдельно)

    Дополнительная информация
    За исходник спасибо - meverik777

    Изобилие звука стало возможным благодаря - mister55555, JUSTKANT, therion778, _int_


    MediaInfo

    x264 [info]: frame I:1128  Avg QP:16.00  size: 42731
    x264 [info]: frame P:31318 Avg QP:18.24  size: 23502
    x264 [info]: frame B:118859 Avg QP:20.31  size:  9987
    x264 [info]: consecutive B-frames:  1.8%  2.4%  7.4% 13.4% 11.1% 56.8%  3.8%  1.3%  0.7%  0.5%  0.3%  0.2%  0.2%

    Общее
    Уникальный идентификатор : 205393714942416092622769342197209503743 (0x9A8563FE56C1B2658EEB30077DDC17FF)
    Полное имя : C:TorrentНастоящая МакКой (The Real McCoy) 1993Настоящая МакКой (The Real McCoy) 1993 DVDRip.mkv
    Формат : Matroska
    Версия формата : Version 2
    Размер файла : 3,34 Гбайт
    Продолжительность : 1 ч. 45 м.
    Общий поток : 4551 Кбит/сек
    Дата кодирования : UTC 2016-05-03 05:26:08
    Программа кодирования : mkvmerge v4.0.0 ("The Stars were mine") сборка от Jun 6 2010 16:18:42
    Библиотека кодирования : libebml v1.0.0 + libmatroska v1.0.0

    Видео
    Идентификатор : 1
    Формат : AVC
    Формат/Информация : Advanced Video Codec
    Профиль формата : High@L4.1
    Параметр CABAC формата : Да
    Параметр ReFrames формата : 12 кадров
    Идентификатор кодека : V_MPEG4/ISO/AVC
    Продолжительность : 1 ч. 45 м.
    Битрейт : 2500 Кбит/сек
    Ширина : 720 пикселей
    Высота : 380 пикселей
    Соотношение сторон : 1,895
    Режим частоты кадров : Постоянный
    Частота кадров : 23,976 кадра/сек
    Цветовое пространство : YUV
    Субдискретизация насыщенности : 4:2:0
    Битовая глубина : 8 бит
    Тип развёртки : Прогрессивная
    Бит/(Пиксели*Кадры) : 0.381
    Размер потока : 1,77 Гбайт (53%)
    Библиотека кодирования : x264 core 146 r2538 121396c
    Настройки программы : cabac=1 / ref=12 / deblock=1:-3:-3 / analyse=0x3:0x133 / me=umh / subme=11 / psy=1 / psy_rd=1.00:0.00 / mixed_ref=1 / me_range=32 / chroma_me=1 / trellis=2 / 8x8dct=1 / cqm=0 / deadzone=21,11 / fast_pskip=0 / chroma_qp_offset=-2 / threads=12 / lookahead_threads=2 / sliced_threads=0 / nr=0 / decimate=0 / interlaced=0 / bluray_compat=0 / constrained_intra=0 / bframes=12 / b_pyramid=2 / b_adapt=2 / b_bias=0 / direct=3 / weightb=1 / open_gop=0 / weightp=2 / keyint=240 / keyint_min=23 / scenecut=40 / intra_refresh=0 / rc=2pass / mbtree=0 / bitrate=2500 / ratetol=1.0 / qcomp=0.60 / qpmin=0 / qpmax=69 / qpstep=4 / cplxblur=20.0 / qblur=0.5 / ip_ratio=1.40 / pb_ratio=1.30 / aq=1:0.80
    Язык : English
    Default : Нет
    Forced : Нет

    Аудио #1
    Идентификатор : 2
    Формат : AC-3
    Формат/Информация : Audio Coding 3
    Расширение режима : CM (complete main)
    Параметр Endianness формата : Big
    Идентификатор кодека : A_AC3
    Продолжительность : 1 ч. 45 м.
    Вид битрейта : Постоянный
    Битрейт : 448 Кбит/сек
    Каналы : 6 каналов
    Расположение каналов : Front: L C R, Side: L R, LFE
    Частота : 48,0 КГц
    Метод сжатия : С потерями
    Размер потока : 337 Мбайт (10%)
    Заголовок : MVO R5
    Язык : Russian
    Default : Нет
    Forced : Нет

    Аудио #2
    Идентификатор : 3
    Формат : AC-3
    Формат/Информация : Audio Coding 3
    Расширение режима : CM (complete main)
    Параметр Endianness формата : Big
    Идентификатор кодека : A_AC3
    Продолжительность : 1 ч. 45 м.
    Вид битрейта : Постоянный
    Битрейт : 192 Кбит/сек
    Каналы : 2 канала
    Расположение каналов : Front: L R
    Частота : 48,0 КГц
    Метод сжатия : С потерями
    Размер потока : 144 Мбайт (4%)
    Заголовок : DVO НТВ (Андрей Ярославцев и Людмила Гнилова)
    Язык : Russian
    Default : Нет
    Forced : Нет

    Аудио #3
    Идентификатор : 4
    Формат : AC-3
    Формат/Информация : Audio Coding 3
    Расширение режима : CM (complete main)
    Параметр Endianness формата : Big
    Идентификатор кодека : A_AC3
    Продолжительность : 1 ч. 45 м.
    Вид битрейта : Постоянный
    Битрейт : 192 Кбит/сек
    Каналы : 2 канала
    Расположение каналов : Front: L R
    Частота : 48,0 КГц
    Метод сжатия : С потерями
    Размер потока : 144 Мбайт (4%)
    Заголовок : DVO TV Перец / РенТВ (Елена и Алексей Борзуновы)
    Язык : Russian
    Default : Нет
    Forced : Нет

    Аудио #4
    Идентификатор : 5
    Формат : AC-3
    Формат/Информация : Audio Coding 3
    Расширение режима : CM (complete main)
    Параметр Endianness формата : Big
    Идентификатор кодека : A_AC3
    Продолжительность : 1 ч. 45 м.
    Вид битрейта : Постоянный
    Битрейт : 192 Кбит/сек
    Каналы : 2 канала
    Расположение каналов : Front: L R
    Частота : 48,0 КГц
    Метод сжатия : С потерями
    Размер потока : 144 Мбайт (4%)
    Заголовок : AVO Живов Юрий Викторович
    Язык : Russian
    Default : Нет
    Forced : Нет

    Аудио #5
    Идентификатор : 6
    Формат : AC-3
    Формат/Информация : Audio Coding 3
    Расширение режима : CM (complete main)
    Параметр Endianness формата : Big
    Идентификатор кодека : A_AC3
    Продолжительность : 1 ч. 45 м.
    Вид битрейта : Постоянный
    Битрейт : 192 Кбит/сек
    Каналы : 2 канала
    Расположение каналов : Front: L R
    Частота : 48,0 КГц
    Метод сжатия : С потерями
    Размер потока : 144 Мбайт (4%)
    Заголовок : AVO Горчаков Василий Овидиевич
    Язык : Russian
    Default : Нет
    Forced : Нет

    Аудио #6
    Идентификатор : 7
    Формат : AC-3
    Формат/Информация : Audio Coding 3
    Расширение режима : CM (complete main)
    Параметр Endianness формата : Big
    Идентификатор кодека : A_AC3
    Продолжительность : 1 ч. 45 м.
    Вид битрейта : Постоянный
    Битрейт : 192 Кбит/сек
    Каналы : 2 канала
    Расположение каналов : Front: L R
    Частота : 48,0 КГц
    Метод сжатия : С потерями
    Размер потока : 144 Мбайт (4%)
    Заголовок : AVO Гаврилов Андрей Юрьевич
    Язык : Russian
    Default : Нет
    Forced : Нет

    Аудио #7
    Идентификатор : 8
    Формат : AC-3
    Формат/Информация : Audio Coding 3
    Расширение режима : CM (complete main)
    Параметр Endianness формата : Big
    Идентификатор кодека : A_AC3
    Продолжительность : 1 ч. 45 м.
    Вид битрейта : Постоянный
    Битрейт : 192 Кбит/сек
    Каналы : 2 канала
    Расположение каналов : Front: L R
    Частота : 48,0 КГц
    Метод сжатия : С потерями
    Размер потока : 144 Мбайт (4%)
    Заголовок : AVO Кузнецов Сергей
    Язык : Russian
    Default : Нет
    Forced : Нет

    Аудио #8
    Идентификатор : 9
    Формат : AC-3
    Формат/Информация : Audio Coding 3
    Расширение режима : CM (complete main)
    Параметр Endianness формата : Big
    Идентификатор кодека : A_AC3
    Продолжительность : 1 ч. 45 м.
    Вид битрейта : Постоянный
    Битрейт : 448 Кбит/сек
    Каналы : 6 каналов
    Расположение каналов : Front: L C R, Side: L R, LFE
    Частота : 48,0 КГц
    Метод сжатия : С потерями
    Размер потока : 337 Мбайт (10%)
    Язык : English
    Default : Нет
    Forced : Нет

    Текст #1
    Идентификатор : 10
    Формат : UTF-8
    Идентификатор кодека : S_TEXT/UTF8
    Идентификатор кодека/Информация : UTF-8 Plain Text
    Язык : Russian
    Default : Нет
    Forced : Нет

    Текст #2
    Идентификатор : 11
    Формат : UTF-8
    Идентификатор кодека : S_TEXT/UTF8
    Идентификатор кодека/Информация : UTF-8 Plain Text
    Язык : English
    Default : Нет
    Forced : Нет


    [img]http://s017.radikal.ru/i440/1605/0b/8f23cde11cdd.png[/img][img]http://s020.radikal.ru/i706/1605/30/f75149cdb53e.png[/img][img]http://s009.radikal.ru/i307/1605/e7/7dd0926d2d41.png[/img][img]http://s016.radikal.ru/i337/1605/4f/b61f26355e21.png[/img]
    [img]http://i042.radikal.ru/1605/7e/052cc91214bd.png[/img][img]http://s017.radikal.ru/i409/1605/7b/3fb2c93c13da.png[/img][img]http://s018.radikal.ru/i518/1605/52/69cdca8f650f.png[/img][img]http://i056.radikal.ru/1605/38/227cae9bd547.png[/img]
    Еще похожие »

    Как скачать?
    1. Качаем UTorrent версии 2.0 и выше отсюда
    2. После установки, жмем на ссылку Скачать торрент.
    3. Открываем его через utorrent.
    4. Ждем пока подключатся участники.
    5. Качаем.


    Комментарии о Настоящая МакКой / The Real McCoy | DVDRip-AVC
    Добавлять комментарии могут только зарегистрированные пользователи

    Зарегистрироваться или Войти


    Ближайшее в кино
    • Безумие Георга III дата выхода 20 ноября 2018Безумие Георга III
      Дата выхода: 20 ноября 2018
    • 7226|Догвилль|22 ноября 2018|200|300Догвилль
      Дата выхода: 22 ноября 2018
    • 1009784|Апгрейд|22 ноября 2018|200|300Апгрейд
      Дата выхода: 22 ноября 2018
    • 988782|Ральф против интернета|22 ноября 2018|200|300Ральф против интернета
      Дата выхода: 22 ноября 2018
    • 965901|Вдовы|22 ноября 2018|200|300Вдовы
      Дата выхода: 22 ноября 2018
    • 1011685|Нация убийц|22 ноября 2018|200|300Нация убийц
      Дата выхода: 22 ноября 2018
    • 891414|Жена|22 ноября 2018|200|300Жена
      Дата выхода: 22 ноября 2018
    • 934207|Мотылёк|22 ноября 2018|200|300Мотылёк
      Дата выхода: 22 ноября 2018
    • 1044912|Вечерняя школа|22 ноября 2018|200|300Вечерняя школа
      Дата выхода: 22 ноября 2018
    • 1036188|Быть Астрид Линдгрен|22 ноября 2018|200|300Быть Астрид Линдгрен
      Дата выхода: 22 ноября 2018
    • 1048852|Помешанный на времени|22 ноября 2018|200|300Помешанный на времени
      Дата выхода: 22 ноября 2018
    • 1049775|Подбросы|22 ноября 2018|200|300Подбросы
      Дата выхода: 22 ноября 2018
    • 1108741|Я — миллиардер|22 ноября 2018|200|300Я — миллиардер
      Дата выхода: 22 ноября 2018
    • 1118041|Три лица|22 ноября 2018|200|300Три лица
      Дата выхода: 22 ноября 2018
    • 1209190|МУЛЬТ в кино. Выпуск 85. Мамин праздник|24 ноября 2018|200|300МУЛЬТ в кино. Выпуск 85. Мамин праздник
      Дата выхода: 24 ноября 2018
    Вверх