• Игры для PS4
  • Игры для PS3
  • Игры для XBOX360
  • Игры для PC
  • Игры для PS2
  • Игры для PSP
  • Для телефонов
  • Музыка
  • Книги / Журналы
  • Обои
  • Опрос
    Откуда Вы о нас узнали?
      0
    • От знакомых2,1,false,300,full
    • Из социальных сетей2,2,false,300,full
    • Из поисковых систем2,3,false,300,full
    • Другое2,4,false,300,full
    Статистика
    Всего онлайн -
    Гостей -
    Пользователей -
    Короли трекера
    
    Благодарности () Закрыть
    Информация о фильме
    Название: Чужая страна
    Оригинальное название: Strangerland
    Год выпуска: 2015
    Жанр:  Триллер, драма
    Режиссер: Ким Фаррант
    В ролях: Николь Кидман, Хьюго Уивинг, Джозеф Файнс, Шон Кинэн, Мэддисон Браун, Николас Хэмилтон, Мейн Уайат, Бенедикт Харди, Мартин Дингл Уолл, Тейлор Фергюсон

    О фильме: Сюжет фильма о том, как у семейной пары Кэтрин и Мэтью Паркеров исчезли в австралийской пустыне двое детей-подростков, и родители пытаются их найти всеми немыслимыми способами. А вот с чем они столкнутся, пытаясь вернуть своих детей? Возможно их съели динго? Или какая-то тайна тянется из их детства?

    [img]http://s43.radikal.ru/i101/1512/56/62e6219dd06d.png[/img]

    Страна: Австралия, Ирландия
    Студия: Dragonfly Pictures, Fastnet Films, Worldview Entertainment
    Продолжительность: 01:51:45
    Перевод: Профессиональный многоголосый (Официальный звук)

    Файл
    Формат: AVI
    Качество: HDRip
    Видео: XviD, 688x288, 23.976 fps, 793 kbps
    Звук: MP3, 2 ch, ~128 kbps



    MediaInfo
    Общее
    Полное имя                               : Strangerland.2015.HDRip.745MB.MegaPeer.avi
    Формат                                   : AVI
    Формат/Информация                        : Audio Video Interleave
    Размер файла                             : 744 Мбайт
    Продолжительность                        : 1 ч. 51 м.
    Общий поток                              : 931 Кбит/сек
    Программа кодирования                    : VirtualDubMod 1.5.10.3 | www.virtualdub-fr.org || (build 2550/release)
    Библиотека кодирования                   : VirtualDubMod build 2550/release

    Видео
    Идентификатор                            : 0
    Формат                                   : MPEG-4 Visual
    Профиль формата                          : Advanced Simple@L5
    Параметр BVOP формата                    : 1
    Параметр QPel формата                    : Нет
    Параметр GMC формата                     : Без точки перехода
    Параметр матрицы формата                 : Выборочная
    Идентификатор кодека                     : XVID
    Идентификатор кодека/Подсказка           : XviD
    Продолжительность                        : 1 ч. 51 м.
    Битрейт                                  : 794 Кбит/сек
    Ширина                                   : 688 пикселей
    Высота                                   : 288 пикселей
    Соотношение сторон                       : 2,40:1
    Частота кадров                           : 23,976 (23976/1000) кадра/сек
    Цветовое пространство                    : YUV
    Субдискретизация насыщенности            : 4:2:0
    Битовая глубина                          : 8 бит
    Тип развёртки                            : Прогрессивная
    Метод сжатия                             : С потерями
    Бит/(Пиксели*Кадры)                      : 0.167
    Размер потока                            : 634 Мбайт (85%)
    Библиотека кодирования                   : XviD 73

    Аудио
    Идентификатор                            : 1
    Формат                                   : MPEG Audio
    Версия формата                           : Version 1
    Профиль формата                          : Layer 3
    Идентификатор кодека                     : 55
    Идентификатор кодека/Подсказка           : MP3
    Продолжительность                        : 1 ч. 51 м.
    Вид битрейта                             : Постоянный
    Битрейт                                  : 128 Кбит/сек
    Каналы                                   : 2 канала
    Частота                                  : 48,0 КГц
    Метод сжатия                             : С потерями
    Размер потока                            : 102 Мбайт (14%)
    Выравнивание                             : Соединение по промежуткам
    Продолжительность промежутка             : 42  мс. (1,00 видеокадр)
    Время предзагрузки промежутка            : 504  мс.
    Библиотека кодирования                   : LAME3.99r
    Настройки программы                      : -m s -V 4 -q 2 -lowpass 17 -b 128

    Свернуть
    Похожие раздачи Искать похожие
    Инструкция по скачиванию
     1  Качаем uTorrent версии 2.0 и выше
     2  После установки, жмем выше под постером на ссылку Скачать [MediaGet] или Скачать .torrent
     3  Открываем скачанный файл через соответствующий клиент: MediaGet или uTorrent
     4  Ждем пока подключатся участники
     5  Качаем
    Комментарии о  Чужая страна / Strangerland | HDRip 
    Ближайшее в кино
    Вверх