• Игры для PS4
  • Игры для PS3
  • Игры для XBOX360
  • Игры для PC
  • Игры для PS2
  • Игры для PSP
  • Для телефонов
  • Музыка
  • Книги / Журналы
  • Обои
  • Опрос
    Удобен ли сайт в использовании?
      0
    • Очень удобен, все понятно1,1,false,300,full
    • Удобен1,2,false,300,full
    • Средне1,3,false,300,full
    • Неудобен, трудно ориентироваться1,4,false,300,full
    • Совсем неудобен1,5,false,300,full
    Статистика
    Всего онлайн -
    Гостей -
    Пользователей -
    Короли трекера
    
    Благодарности () Закрыть
    Страна: США
    Жанр:  Фантастика, Боевик
    Год выпуска: 1984
    Продолжительность: 01:16:30

    Перевод: Авторский одноголосный закадровый Пётр Карцев
    Cубтитры: английские
    Оригинальная аудиодорожка: английский

    Режиссер: Чарльз Бэнд / Charles Band

    В ролях: Тим Томерсон, Хелен Хант, Майкл Стефани, Арт Ла Флер, Телма Хопкинс, Ричард Херд, Энн Сеймур, Мигель Фернадес, Бифф Мэнард, Пит Шрам, Брэд Логан, Ричард Эрдман, Уайли Харкер, Барбара Перри

    Описание: Из далекого будущего в наши дни в Лос-Анджелес направляют полицейского по имени Джек Дес, который должен отыскать преступника Мартина Уистлера и доставить его «обратно» в будущее. Ему предстоит сражаться с трансерами — людьми-зомби, которых лишает воли преступник, и встретить свою любовь. В конце концов Джека будет преследовать вся полиция Лос-Анджелеса во главе с Уистлером. От исхода их схватки зависит судьба человечества….

    [img]http://i54.fastpic.ru/big/2012/1230/6e/9b26ca8d64820bbf82a5e219b12e076e.png[/img]
    Рецензия
    [align=center]Транс[/align]

    Первое, на что обращаешь внимание при просмотре «Трансеров», так это на «вязкую» атмосферу далёкого будущего, пережившего катастрофу. Собственно, о самой катастрофе зрителям ничего в фильме не сообщается, но потрясающий пейзаж Лос-Анджелеса, до половины его самых высоких небоскрёбов заполненного водой, впечатляет! Сюжет «Трансеров» не то чтобы оригинальный, но необычным его вполне можно назвать. Наверное, я никогда не устану от просмотра бесконечных историй про отправление людей в прошлое, а потому за всеми штампами «Трансеров» мне при просмотре отнюдь не хотелось обращать внимание на редкие незначительные недостатки фильма. Интересен тот факт, что выходцы из кинокомпании Empire Pictures в будущем создали кинокомпанию Full Moon, которая стала известна миру как сборище завзятых трэш-мейкеров, а потому мне было любопытно, посмотрев «Трансеров», осознать, что фильм отнюдь не является подделкой.

    Между прочим, в «Трансерах» присутствует даже настоящая звезда, правда, известная только среди узкого круга любителей дешёвеньких научно-фантастических боевиков. Речь идёт, безусловно, о Тиме Томерсоне, который исполняет в фильме роль бывалого полицейского Джека, отправившегося в прошлое спасать мир. Стоит сказать о том, что в «Трансерах» есть и запутанная любовная линия с её особенной интригой, а, собственно, главная сюжетная линия аккуратно «размазана» на весь хронометраж фильма. Засим в «Трансерах» интересных моментов — хоть отбавляй! Я даже больше скажу: тот час, который я провёл за просмотром фильма, пролетел для меня буквально незаметно — от одного интересного момента к другому. Поэтому скажу однозначно: «Трансеры» действительно способны влюбить в себя. Также мне стоит упомянуть об интриге в фильме, которая здесь настолько плотная и настолько же непрозрачная, что никакого желания не возникает задуматься хотя бы раз над тем, в какую же сторону повернут сценаристы сюжет — фильм смотришь с живым интересом и без каких-либо посторонних мыслей в голове.

    Чем ещё радуют «Трансеры», так это своей замечательной идеей, которая касается как раз самих трансеров. В общем счёте, трансеры представляют собой мистическую секту с тёмным прошлым, с виду они довольно сильно напоминают зомби — чем больше человека порабощает разум лидера секты и его злая воля, тем меньше он начинает походить на человека и ещё больше превращаться в живого бездумного мертвеца. Жаль только, что фильм о предыстории трансеров, если быть откровенным, особо не распространяется, хотя впрочем, и без этого, как уже было сказано, фильм не даёт зрителям заскучать. Ещё хочу сказать о том, что при просмотре «Трансеров» тяжёлая атмосфера фильма то и дело заставляла меня невольно напрягаться — что и говорить: «Трансеры» действительно цепляют! Иногда, конечно, при просмотре «мелькает» дешевизна этого фильма, но за всей его старинностью (всё-таки свет «Трансеры» увидели четверть века назад) на этот момент как-то закрываешь глаза.

    Вердикт. Фильм «Трансеры» — добротный старенький научно-фантастический боевик, который привлекает к себе внимание в первую очередь своим интересным, в меру запутанным сюжетом. Как приятное дополнение к просмотру, в фильме также присутствуют качественная любовная история с её особенной интригой и львиная доля шуток, которые действительно веселят, ибо высмеивают саму ситуацию, в которой оказался главный герой.

    [align=center]8,5 из 10[/align]Свернуть


    Качество видео: BDDRip-AVC (Trancers.1984.COMPLETE.BLURAY-WH)
    Формат видео: MKV

    Видео: AVC, 1152x648 (16:9), 23.976 fps, 2 463 Kbps (0.138 bit/pixel)
    Аудио #1: AAC LC, ~ 128 kbps, VBR, 48.0 KHz, 2 ch (Russian)
    Аудио #2: AAC LC, ~ 128 kbps, VBR, 48.0 KHz, 2 ch (English)
    Формат субтитров: softsub (SRT)

    MediaInfo

    Общее
    Уникальный идентификатор                 : 238746305820917591497944410683824004513 (0xB39CDDAED9571712B3A5897B64EDDDA1)
    Формат                                   : Matroska
    Версия формата                           : Version 4 / Version 2
    Размер файла                             : 1,46 Гбайт
    Продолжительность                        : 1 ч. 16 м.
    Общий поток                              : 2719 Кбит/сек
    Дата кодирования                         : UTC 2016-05-01 10:12:22
    Программа кодирования                    : mkvmerge v9.0.1 ("Obstacles") 32bit
    Библиотека кодирования                   : libebml v1.3.3 + libmatroska v1.4.4

    Видео
    Идентификатор                            : 1
    Формат                                   : AVC
    Формат/Информация                        : Advanced Video Codec
    Профиль формата                          : High@L4.1
    Параметр CABAC формата                   : Да
    Параметр ReFrames формата                : 11 кадров
    Идентификатор кодека                     : V_MPEG4/ISO/AVC
    Продолжительность                        : 1 ч. 16 м.
    Битрейт                                  : 2463 Кбит/сек
    Ширина                                   : 1152 пикселя
    Высота                                   : 648 пикселей
    Соотношение сторон                       : 16:9
    Режим частоты кадров                     : Постоянный
    Частота кадров                           : 23,976 (24000/1001) кадра/сек
    Цветовое пространство                    : YUV
    Субдискретизация насыщенности            : 4:2:0
    Битовая глубина                          : 8 бит
    Тип развёртки                            : Прогрессивная
    Бит/(Пиксели*Кадры)                      : 0.138
    Размер потока                            : 1,32 Гбайт (90%)
    Библиотека кодирования                   : x264 core 148 r2638 7599210
    Настройки программы                      : cabac=1 / ref=11 / deblock=1:0:0 / analyse=0x3:0x133 / me=umh / subme=10 / psy=1 / psy_rd=1.00:0.00 / mixed_ref=1 / me_range=24 / chroma_me=1 / trellis=2 / 8x8dct=1 / cqm=0 / deadzone=21,11 / fast_pskip=1 / chroma_qp_offset=-2 / threads=6 / lookahead_threads=1 / sliced_threads=0 / nr=0 / decimate=1 / interlaced=0 / bluray_compat=0 / constrained_intra=0 / bframes=14 / b_pyramid=2 / b_adapt=2 / b_bias=0 / direct=3 / weightb=1 / open_gop=0 / weightp=2 / keyint=240 / keyint_min=23 / scenecut=40 / intra_refresh=0 / rc_lookahead=60 / rc=2pass / mbtree=0 / bitrate=2463 / ratetol=1.0 / qcomp=0.60 / qpmin=0 / qpmax=69 / qpstep=4 / cplxblur=20.0 / qblur=0.5 / vbv_maxrate=62500 / vbv_bufsize=78125 / nal_hrd=none / filler=0 / ip_ratio=1.40 / pb_ratio=1.30 / aq=1:1.00
    Default                                  : Да
    Forced                                   : Нет

    Аудио #1
    Идентификатор                            : 2
    Формат                                   : AAC
    Формат/Информация                        : Advanced Audio Codec
    Профиль формата                          : LC
    Идентификатор кодека                     : A_AAC
    Продолжительность                        : 1 ч. 16 м.
    Битрейт                                  : 128 Кбит/сек
    Каналы                                   : 2 канала
    Расположение каналов                     : Front: L R
    Частота                                  : 48,0 КГц
    Частота кадров                           : 46,875 кадров/сек (1024 spf)
    Метод сжатия                             : С потерями
    Задержка видео                           : 9 мс.
    Размер потока                            : 70,2 Мбайт (5%)
    Заголовок                                : Russian
    Язык                                     : Russian
    Default                                  : Да
    Forced                                   : Нет

    Аудио #2
    Идентификатор                            : 3
    Формат                                   : AAC
    Формат/Информация                        : Advanced Audio Codec
    Профиль формата                          : LC
    Идентификатор кодека                     : A_AAC
    Продолжительность                        : 1 ч. 16 м.
    Битрейт                                  : 128 Кбит/сек
    Каналы                                   : 2 канала
    Расположение каналов                     : Front: L R
    Частота                                  : 48,0 КГц
    Частота кадров                           : 46,875 кадров/сек (1024 spf)
    Метод сжатия                             : С потерями
    Задержка видео                           : 9 мс.
    Размер потока                            : 70,2 Мбайт (5%)
    Заголовок                                : English
    Язык                                     : English
    Default                                  : Нет
    Forced                                   : Нет

    Текст
    Идентификатор                            : 4
    Формат                                   : UTF-8
    Идентификатор кодека                     : S_TEXT/UTF8
    Идентификатор кодека/Информация          : UTF-8 Plain Text
    Продолжительность                        : 1 ч. 13 м.
    Битрейт                                  : 45 бит/сек
    Count of elements                        : 765
    Размер потока                            : 24,4 Кбайт (0%)
    Заголовок                                : English
    Язык                                     : English
    Default                                  : Да
    Forced                                   : Нет

    Меню
    00:00:00.054                             : en:00:00:00.054 / en:00:00:00.054
    Свернуть


    Скриншот c названием фильма

    [screen]http://i1.imageban.ru/out/2016/05/01/3914f1d4625f30d37b72c5c996843b91.png[/screen]  
    Свернуть


    Скриншоты

    [screen]http://i6.imageban.ru/out/2016/05/01/56ab57c6125cc83bb9d4a099ee66bfc7.png[/screen][screen]http://i3.imageban.ru/out/2016/05/01/8bb8ec4af925c287a433d015302b2b83.png[/screen][screen]http://i3.imageban.ru/out/2016/05/01/49c7eb3dd6a2e9c07e784314084086c6.png[/screen][screen]http://i4.imageban.ru/out/2016/05/01/cc62d482682bad66291286f3c9a2867d.png[/screen][screen]http://i3.imageban.ru/out/2016/05/01/7f5b3826dc31b90384cdc751eae5315c.png[/screen][screen]http://i1.imageban.ru/out/2016/05/01/7e5fd408fbbbf8752d5f58bc8433e949.png[/screen][screen]http://i1.imageban.ru/out/2016/05/01/193ca8ebcb7d95751e8e3c234d45c770.png[/screen][screen]http://i3.imageban.ru/out/2016/05/01/96fd0e74a581d1643090604e375c3891.png[/screen]
    Свернуть
    Инструкция по скачиванию
     1  Качаем uTorrent версии 2.0 и выше
     2  После установки, жмем выше под постером на ссылку Скачать [MediaGet] или Скачать .torrent
     3  Открываем скачанный файл через соответствующий клиент: MediaGet или uTorrent
     4  Ждем пока подключатся участники
     5  Качаем
    Комментарии о  Трансеры (Полицейский будущего) / Trancers (Future Cop) | BLURAY 
    Ближайшее в кино
    Вверх