• Игры для PS4
  • Игры для PS3
  • Игры для XBOX360
  • Игры для PC
  • Игры для PS2
  • Игры для PSP
  • Для телефонов
  • Музыка
  • Книги / Журналы
  • Обои
  • Опрос
    Откуда Вы о нас узнали?
      0
    • От знакомых2,1,false,300,full
    • Из социальных сетей2,2,false,300,full
    • Из поисковых систем2,3,false,300,full
    • Другое2,4,false,300,full
    Статистика
    Всего онлайн -
    Гостей -
    Пользователей -
    Короли трекера
    
    Благодарности () Закрыть
    Страна: США
    Жанр:  Фантастика, Боевик
    Год выпуска: 1984
    Продолжительность: 01:16:30

    Перевод: Авторский одноголосный закадровый Пётр Карцев
    Cубтитры: английские
    Оригинальная аудиодорожка: английский

    Режиссер: Чарльз Бэнд / Charles Band

    В ролях: Тим Томерсон, Хелен Хант, Майкл Стефани, Арт Ла Флер, Телма Хопкинс, Ричард Херд, Энн Сеймур, Мигель Фернадес, Бифф Мэнард, Пит Шрам, Брэд Логан, Ричард Эрдман, Уайли Харкер, Барбара Перри

    Описание: Из далекого будущего в наши дни в Лос-Анджелес направляют полицейского по имени Джек Дес, который должен отыскать преступника Мартина Уистлера и доставить его «обратно» в будущее. Ему предстоит сражаться с трансерами — людьми-зомби, которых лишает воли преступник, и встретить свою любовь. В конце концов Джека будет преследовать вся полиция Лос-Анджелеса во главе с Уистлером. От исхода их схватки зависит судьба человечества….

    [img]http://i54.fastpic.ru/big/2012/1230/6e/9b26ca8d64820bbf82a5e219b12e076e.png[/img]

    Качество видео: BDDRip-AVC (Trancers.1984.COMPLETE.BLURAY-WH)
    Формат видео: MKV

    Видео: AVC, 852x480 (16:9), 23.976 fps, 1096 Kbps (0.112 bit/pixel)
    Аудио #1: AAC LC, ~ 128 kbps, VBR, 48.0 KHz, 2 ch (Russian)
    Аудио #2: AAC LC, ~ 128 kbps, VBR, 48.0 KHz, 2 ch (English)
    Формат субтитров: softsub (SRT)

    MediaInfo

    Общее
    Уникальный идентификатор                 : 187723379003055446454256016378727613532 (0x8D3A352B105F93EFBFBB5E5E03D5C45C)
    Формат                                   : Matroska
    Версия формата                           : Version 4 / Version 2
    Размер файла                             : 743 Мбайт
    Продолжительность                        : 1 ч. 16 м.
    Общий поток                              : 1354 Кбит/сек
    Дата кодирования                         : UTC 2016-05-02 05:46:03
    Программа кодирования                    : mkvmerge v9.1.0 ("Little Earthquakes") 64bit
    Библиотека кодирования                   : libebml v1.3.3 + libmatroska v1.4.4

    Видео
    Идентификатор                            : 1
    Формат                                   : AVC
    Формат/Информация                        : Advanced Video Codec
    Профиль формата                          : High@L4.1
    Параметр CABAC формата                   : Да
    Параметр ReFrames формата                : 16 кадров
    Идентификатор кодека                     : V_MPEG4/ISO/AVC
    Продолжительность                        : 1 ч. 16 м.
    Битрейт                                  : 1096 Кбит/сек
    Ширина                                   : 852 пикселя
    Высота                                   : 480 пикселей
    Соотношение сторон                       : 16:9
    Режим частоты кадров                     : Постоянный
    Частота кадров                           : 23,976 (24000/1001) кадра/сек
    Цветовое пространство                    : YUV
    Субдискретизация насыщенности            : 4:2:0
    Битовая глубина                          : 8 бит
    Тип развёртки                            : Прогрессивная
    Бит/(Пиксели*Кадры)                      : 0.112
    Размер потока                            : 601 Мбайт (81%)
    Библиотека кодирования                   : x264 core 148 r2638 7599210
    Настройки программы                      : cabac=1 / ref=16 / deblock=1:0:0 / analyse=0x3:0x133 / me=umh / subme=10 / psy=1 / psy_rd=1.00:0.00 / mixed_ref=1 / me_range=24 / chroma_me=1 / trellis=2 / 8x8dct=1 / cqm=0 / deadzone=21,11 / fast_pskip=1 / chroma_qp_offset=-2 / threads=6 / lookahead_threads=1 / sliced_threads=0 / nr=0 / decimate=1 / interlaced=0 / bluray_compat=0 / constrained_intra=0 / bframes=14 / b_pyramid=2 / b_adapt=2 / b_bias=0 / direct=3 / weightb=1 / open_gop=0 / weightp=2 / keyint=240 / keyint_min=23 / scenecut=40 / intra_refresh=0 / rc_lookahead=60 / rc=2pass / mbtree=0 / bitrate=1096 / ratetol=1.0 / qcomp=0.60 / qpmin=0 / qpmax=69 / qpstep=4 / cplxblur=20.0 / qblur=0.5 / vbv_maxrate=62500 / vbv_bufsize=78125 / nal_hrd=none / filler=0 / ip_ratio=1.40 / pb_ratio=1.30 / aq=1:1.00
    Default                                  : Да
    Forced                                   : Нет

    Аудио #1
    Идентификатор                            : 2
    Формат                                   : AAC
    Формат/Информация                        : Advanced Audio Codec
    Профиль формата                          : LC
    Идентификатор кодека                     : A_AAC
    Продолжительность                        : 1 ч. 16 м.
    Битрейт                                  : 128 Кбит/сек
    Каналы                                   : 2 канала
    Расположение каналов                     : Front: L R
    Частота                                  : 48,0 КГц
    Частота кадров                           : 46,875 кадров/сек (1024 spf)
    Метод сжатия                             : С потерями
    Задержка видео                           : 9 мс.
    Размер потока                            : 70,2 Мбайт (9%)
    Заголовок                                : Russian
    Язык                                     : Russian
    Default                                  : Да
    Forced                                   : Нет

    Аудио #2
    Идентификатор                            : 3
    Формат                                   : AAC
    Формат/Информация                        : Advanced Audio Codec
    Профиль формата                          : LC
    Идентификатор кодека                     : A_AAC
    Продолжительность                        : 1 ч. 16 м.
    Битрейт                                  : 128 Кбит/сек
    Каналы                                   : 2 канала
    Расположение каналов                     : Front: L R
    Частота                                  : 48,0 КГц
    Частота кадров                           : 46,875 кадров/сек (1024 spf)
    Метод сжатия                             : С потерями
    Задержка видео                           : 9 мс.
    Размер потока                            : 70,2 Мбайт (9%)
    Заголовок                                : English
    Язык                                     : English
    Default                                  : Нет
    Forced                                   : Нет

    Текст
    Идентификатор                            : 4
    Формат                                   : UTF-8
    Идентификатор кодека                     : S_TEXT/UTF8
    Идентификатор кодека/Информация          : UTF-8 Plain Text
    Продолжительность                        : 1 ч. 13 м.
    Битрейт                                  : 45 бит/сек
    Count of elements                        : 765
    Размер потока                            : 24,4 Кбайт (0%)
    Заголовок                                : English
    Язык                                     : English
    Default                                  : Да
    Forced                                   : Нет

    Меню
    00:00:00.054                             : en:00:00:00.054 / en:00:00:00.054
    Свернуть


    Скриншот c названием фильма

    [screen]http://i6.imageban.ru/out/2016/05/02/a52d164615cbf902e14648f5da38558a.png[/screen]
    Свернуть


    Скриншоты

    [screen]http://i5.imageban.ru/out/2016/05/02/c373c338629edff2c1e012778dad59e0.png[/screen][screen]http://i5.imageban.ru/out/2016/05/02/4b61e09f0c3429978ab7a9255eaea09e.png[/screen][screen]http://i4.imageban.ru/out/2016/05/02/c2023d8701f17199f80d641d76bffd12.png[/screen][screen]http://i3.imageban.ru/out/2016/05/02/05868a115fa87cf06aecc9873ddc95eb.png[/screen][screen]http://i4.imageban.ru/out/2016/05/02/aa8312ec9b73428f5af20f6aaf28cc0e.png[/screen][screen]http://i2.imageban.ru/out/2016/05/02/2b504f2e52e17f4a950d441739420c20.png[/screen][screen]http://i1.imageban.ru/out/2016/05/02/66727055c791d740adbdbdafb1a4cf00.png[/screen][screen]http://i3.imageban.ru/out/2016/05/02/a74006ce46fdfe0e5301c283808ad24c.png[/screen]
    Свернуть
    Инструкция по скачиванию
     1  Качаем uTorrent версии 2.0 и выше
     2  После установки, жмем выше под постером на ссылку Скачать [MediaGet] или Скачать .torrent
     3  Открываем скачанный файл через соответствующий клиент: MediaGet или uTorrent
     4  Ждем пока подключатся участники
     5  Качаем
    Комментарии о  Трансеры (Полицейский будущего) / Trancers (Future Cop) | BLURAY 
    Ближайшее в кино
    Вверх