• Игры для PS4
  • Игры для PS3
  • Игры для XBOX360
  • Игры для PC
  • Игры для PS2
  • Игры для PSP
  • Для телефонов
  • Музыка
  • Книги / Журналы
  • Обои
  • Опрос
    Удобен ли сайт в использовании?
      0
    • Очень удобен, все понятно1,1,false,300,full
    • Удобен1,2,false,300,full
    • Средне1,3,false,300,full
    • Неудобен, трудно ориентироваться1,4,false,300,full
    • Совсем неудобен1,5,false,300,full
    Статистика
    Всего онлайн -
    Гостей -
    Пользователей -
    Короли трекера
    Благодарности () Закрыть
    Название: Michael Schenker: Temple of Rock - Live In Europe
    Исполнитель: Michael Schenker
    Год выпуска: 2012
    Жанр:  Hard Rock
    Продолжительность: 01:40:38

    Состав:
    Michael Schenker - lead guitars
    Doogie White - lead vocals (RAINBOW, YNGWIE MALMSTEEN, TANK)
    Herman Rarebell - drums
    Francis Buchholz - bass
    Wayne Findlay - keyboards, guitars, backing vocals
    Michael Voss - lead vocals, guitar – Special guest on "Hanging On"

    Описание: Запись концерта в Тилбурге в мае 2012 года в рамках Temple Of Rock тура.
    По словам Майкла Шенкера, он рассматривает деятельность состава Temple of Rock как «завершение строительства замка хард-рока, чей фундамент был заложен на заре 70-х первыми альбомами Led Zeppelin, Deep Purple, Rainbow и Black Sabbath. Его стены – это творчество UFO и других составов конца 70-х. В 80-е эти стены только были укреплены песнями Scorpions и иных влиятельных коллективов. Наверное, от меня не следует ожидать какой-то совершенно новой по сути музыки, но я чрезвычайно рад, что мои новые песни – часть этого замка! Невероятно здорово, что в студии и на сцене мне довелось работать с лучшими именами мировой рок-сцены!»
    В записи концерта в Тилбурге принял участие современный состав Michael Schenker’s Temple Of Rock – это, помимо самого Майкла, вокалист Дуги Уайт (Rainbow, Yngwie Malmsteen и др.), бывшая ритм-секция Scorpions эпохи звездных достижений группы 80-х годов – барабанщик Герман Раребелл и бас-гитарист Францис Бухгольц, а также клавишник и ритм-гитарист Уэйн Файндли (MSG). В записях с фестиваля High Voltage вместе с Майклом на одной сцене также фигурируют вокалист Михаэль Фосс (экс-Casanova, Bonfire) и бас-гитарист Эллиот Дин Рабинсон, а, кроме того, гитарист Scorpions Рудольф Шенкер, бывший бас-гитарист и лидер UFO Пит Уэй и бывший вокалист Ингви Мальмстина Джефф Скотт Сото.

    «Live In Europe» – это лучшая по материалу, исполнению и энергетике аудио-, видеозапись Майкла Шенкера, куда удачно вписался материал всех эпох его творчества – Scorpions, UFO, MSG.

    Треклист:
    (Тилбург, Нидерланды, 13.05.2012)
    01. Into The Arena
    02. Armed And Ready
    03. Lovedrive
    04. Another Piece Of Meat
    05. Hanging On (Special Guest: Michael Voss (Lead Vocals & Guitars)
    06. Cry For The Nations
    07. Let Sleeping Dogs Lie
    08. Coast To Coast
    09. Assault Attack
    10. Before The Devil Knows You"re Dead
    11. Lights Out
    12. On And On
    13. Let It Roll
    14. Shoot Shoot
    15. Rock You Like A Hurricane
    16. Rock Bottom
    17. Holiday
    18. Blackout
    19. Doctor Doctor

    Качество: BDRip 1080p
    Формат: MKV
    Видео кодек: H264
    Аудио кодек: DTS, PCM
    Видео: MPEG4 Video (H264), 1920x1080, 29.97fps, 12.5 Mbps
    Аудио: DTS, 48000 Hz, 4ch, 1509 kbps
    Аудио: PCM, 48000 Hz, 2ch, 1536 kbps

    Сэмпл

    MediaInfo
    General
    Unique ID                      : 194428076454218600990429943412506194437 (0x92457C4645DB707C88D098861DAB7205)
    Complete name                  : F:Torrent 22012.M.S.G.Temple.of.Rock.renta23.mkv
    Format                         : Matroska
    Format version                 : Version 4 / Version 2
    File size                      : 10.9 GiB
    Duration                       : 1h 40mn
    Overall bit rate               : 15.5 Mbps
    Movie name                     : 2012 Michael Schenker: Temple of Rock - Live In Europe /renta23
    Encoded date                   : UTC 2016-05-03 10:24:16
    Writing application            : mkvmerge v8.3.0 ("Over the Horizon") 64bit
    Writing library                : libebml v1.3.1 + libmatroska v1.4.2

    Video
    ID                             : 1
    Format                         : AVC
    Format/Info                    : Advanced Video Codec
    Format profile                 : High@L4.1
    Format settings, CABAC         : Yes
    Format settings, ReFrames      : 4 frames
    Codec ID                       : V_MPEG4/ISO/AVC
    Duration                       : 1h 40mn
    Bit rate                       : 12.5 Mbps
    Width                          : 1 920 pixels
    Height                         : 1 080 pixels
    Display aspect ratio           : 16:9
    Frame rate mode                : Constant
    Frame rate                     : 29.970 (30000/1001) fps
    Color space                    : YUV
    Chroma subsampling             : 4:2:0
    Bit depth                      : 8 bits
    Scan type                      : Progressive
    Bits/(Pixel*Frame)             : 0.201
    Stream size                    : 8.79 GiB (80%)
    Title                          : 2012 Michael Schenker: Temple of Rock - Live In Europe
    Writing library                : x264 core 146 r2538 121396c
    Encoding settings              : cabac=1 / ref=4 / deblock=1:-1:-1 / analyse=0x3:0x133 / me=umh / subme=11 / psy=1 / psy_rd=1.07:0.23 / mixed_ref=1 / me_range=24 / chroma_me=1 / trellis=2 / 8x8dct=1 / cqm=0 / deadzone=21,11 / fast_pskip=0 / chroma_qp_offset=-3 / threads=12 / lookahead_threads=3 / sliced_threads=0 / nr=0 / decimate=1 / interlaced=0 / bluray_compat=0 / constrained_intra=0 / bframes=10 / b_pyramid=2 / b_adapt=2 / b_bias=0 / direct=3 / weightb=1 / open_gop=0 / weightp=2 / keyint=250 / keyint_min=25 / scenecut=40 / intra_refresh=0 / rc=2pass / mbtree=0 / bitrate=12500 / ratetol=1.0 / qcomp=0.60 / qpmin=0 / qpmax=69 / qpstep=4 / cplxblur=20.0 / qblur=0.5 / ip_ratio=1.40 / pb_ratio=1.30 / aq=2:1.00
    Language                       : English
    Default                        : Yes
    Forced                         : No

    Audio #1
    ID                             : 2
    Format                         : DTS
    Format/Info                    : Digital Theater Systems
    Mode                           : 16
    Format settings, Endianness    : Big
    Codec ID                       : A_DTS
    Duration                       : 1h 40mn
    Bit rate mode                  : Constant
    Bit rate                       : 1 509 Kbps
    Channel(s)                     : 6 channels
    Channel positions              : Front: L C R, Side: L R, LFE
    Sampling rate                  : 48.0 KHz
    Frame rate                     : 93.750 fps (512 spf)
    Bit depth                      : 24 bits
    Compression mode               : Lossy
    Stream size                    : 1.06 GiB (10%)
    Title                          : DTS 5.1
    Language                       : English
    Default                        : Yes
    Forced                         : No

    Audio #2
    ID                             : 3
    Format                         : PCM
    Codec ID                       : A_PCM/INT/LIT
    Duration                       : 1h 40mn
    Bit rate mode                  : Constant
    Bit rate                       : 1 536 Kbps
    Channel(s)                     : 2 channels
    Sampling rate                  : 48.0 KHz
    Frame rate                     : 32.000 fps (1500 spf)
    Bit depth                      : 16 bits
    Stream size                    : 1.08 GiB (10%)
    Title                          : PCM Stereo
    Language                       : English
    Default                        : No
    Forced                         : No

    Menu
    00:00:00.000                   : en:Chapter 01
    00:05:23.556                   : en:Chapter 02
    00:10:38.471                   : en:Chapter 03
    00:15:07.439                   : en:Chapter 04
    00:18:52.364                   : en:Chapter 05
    00:23:26.438                   : en:Chapter 06
    00:28:49.894                   : en:Chapter 07
    00:35:45.576                   : en:Chapter 08
    00:40:06.704                   : en:Chapter 09
    00:45:16.513                   : en:Chapter 10
    00:49:29.299                   : en:Chapter 11
    00:54:38.775                   : en:Chapter 12
    01:00:13.343                   : en:Chapter 13
    01:04:41.844                   : en:Chapter 14
    01:08:26.769                   : en:Chapter 15
    01:13:05.481                   : en:Chapter 16
    01:26:22.043                   : en:Chapter 17
    01:30:38.232                   : en:Chapter 18
    01:34:32.900                   : en:Chapter 19

    Свернуть


    [img]http://i80.fastpic.ru/big/2016/0503/dc/9a4186b799e884e75725ff69d3dafcdc.png[/img][img]http://i78.fastpic.ru/big/2016/0503/12/54bf5da6680ffc33bc60f9bf189fc612.png[/img][img]http://i79.fastpic.ru/big/2016/0503/cb/6d50df4221bcf442eabbe4e4fd06adcb.png[/img][img]http://i80.fastpic.ru/big/2016/0503/4f/6567c2cd551c56e800de73abccafe64f.png[/img]
    [img]http://i79.fastpic.ru/big/2016/0503/57/e2515388217a8af96d046c71e9d2c557.png[/img][img]http://i79.fastpic.ru/big/2016/0503/3a/5e5dc73fde8afbe6587348433cd1a03a.png[/img][img]http://i77.fastpic.ru/big/2016/0503/75/d52676c542e79241a4acd4d09a173175.png[/img][img]http://i79.fastpic.ru/big/2016/0503/9f/16a05a4b68e8593d0e36cb41f600589f.png[/img]
    Похожие раздачи Искать похожие
    Инструкция по скачиванию
     1  Качаем uTorrent версии 2.0 и выше
     2  После установки, жмем выше под постером на ссылку Скачать [MediaGet] или Скачать .torrent
     3  Открываем скачанный файл через соответствующий клиент: MediaGet или uTorrent
     4  Ждем пока подключатся участники
     5  Качаем
    Комментарии о  Michael Schenker: Temple of Rock - Live In Europe 
    Ближайшее в кино
    Вверх