• Игры для PS4
  • Игры для PS3
  • Игры для XBOX360
  • Игры для PC
  • Игры для PS2
  • Игры для PSP
  • Для телефонов
  • Музыка
  • Книги/Журналы
  • Обои
  •  
    Опрос
    Удобен ли сайт в использовании?
      0
    • Очень удобен, все понятно1,1,false,300,full
    • Удобен1,2,false,300,full
    • Средне1,3,false,300,full
    • Неудобен, трудно ориентироваться1,4,false,300,full
    • Совсем неудобен1,5,false,300,full
    Статистика
    Загрузка...
    Капитан Саблезуб и сокровища Лама Рама / Kaptein Sabeltann og skatten i Lama Rama | HDRip-AVC
    Статус  Проверено
    В закладки
    Модератор: Max

    Капитан Саблезуб и сокровища Лама Рама / Kaptein Sabeltann og skatten i Lama Rama | HDRip-AVC [Фильмы 2014] скачать торрентом/torrent бесплатно

    Год выхода
    Язык
    Закачал
    Аноним | 03 мая 2016 в 16ч 44м 15с
    Раздел
    Отзывов
    0
    Раздают: 26 Качают: 0 Скачали: 36 Размер: 2.18 GB
    Инфо о раздаче | Благодарности |
    0/5
    0
    0 5 0
    Поддержи нас — расскажи друзьям!
    Orbitum
    Новый интернет-браузер Быстрее загружает сайты Экономит интернет—трафик Меняет оформление страницы ВК Блокирует всю рекламу на сайтах Загружает торренты как

    µTorrent

    клиент
    Объеденяет все твои чаты из соц. сетей в один Проигрывает твою музыку не заходя во ВКонтакте
    Скачать и многое другое... Подробности на сайте производителя
    Информация о фильме
    Название: Капитан Саблезуб и сокровища Лама Рама
    Оригинальное название: Kaptein Sabeltann og skatten i Lama Rama
    Год выхода: 2014
    Жанр: Боевик, драма, комедия, приключения, семейный
    Режиссер: Йон Андерсен
    В ролях: Тува Новотны, Андерс Босмо Кристиансен, Фридтьов Сохейм, Одд Магнус Уильямсон, Карре Хаген Сиднесс, Пиа Тьелта, Йон Ёигарден, Роберт Скйэрстад, Нильс Йорген Каалстад, Хами Белаль

    О фильме:
    Отважный и самоуверенный капитан Саблезуб бороздит моря и океаны со своей командой в поисках сокровищ. Естественно, в пути они переживают массу приключений: на них нападает целая армия злобных обезьян, их судно угоняет конкурирующая шайка пиратов, они оказываются участниками государственного переворота, а в довершении всего, у них юнга, который не умеет плавать…

    [img]http://imdb.snick.ru/ratefor/02/tt2664712.png[/img]
    Страна: Норвегия, Великобритания
    Студия: Norwegian Pirates, Storm Films, Storm Productions
    Продолжительность: 01:36:20
    Перевод: Профессиональный многоголосый (Кинопоказ)

    Файл
    Кодек: x264
    Качество: HDRip-AVC
    Видео: MPEG-4 AVC, 2596 Кбит/с, 1024x432, 24 кадр/с
    Аудио #1: AC3, 2 ch, 192 Кбит/с | Русский
    Аудио #2: AC3, 6 ch, 448 Кбит/с | Норвежский
    Субтитры: Норвежские

    MediaInfo
    ]Общее
    Уникальный идентификатор                 : 230118882993746564260979383790881037445 (0xAD1F48E58CE1C93794730786764D5C85)
    Полное имя                               : Kaptein.Sabeltann.og.Skatten.I.Lama.Rama.2014.HDRip-AVC.mkv
    Формат                                   : Matroska
    Версия формата                           : Version 4 / Version 2
    Размер файла                             : 2,18 Гбайт
    Продолжительность                        : 1 ч. 36 м.
    Общий поток                              : 3235 Кбит/сек
    Название фильма                          : Kaptein Sabeltann og skatten i Lama Rama
    Режиссёр                                 :  John Andreas Andersen, Lisa Marie Gamlem
    Дата кодирования                         : UTC 2016-04-02 06:25:45
    Программа кодирования                    : mkvmerge v7.7.0 ("Six Voices") 32bit built on Feb 28 2015 23:23:00
    Библиотека кодирования                   : libebml v1.3.1 + libmatroska v1.4.2
    Attachements                             : cover.jpg
    Release                                  : Koenig
    DURATION                                 : 01:30:52.500000000
    NUMBER_OF_FRAMES                         : 699
    NUMBER_OF_BYTES                          : 26858
    _STATISTICS_WRITING_APP                  : mkvmerge v7.7.0 ("Six Voices") 32bit built on Feb 28 2015 23:23:00
    _STATISTICS_WRITING_DATE_UTC             : 2016-04-02 06:25:45
    _STATISTICS_TAGS                         : BPS DURATION NUMBER_OF_FRAMES NUMBER_OF_BYTES

    Видео
    Идентификатор                            : 1
    Формат                                   : AVC
    Формат/Информация                        : Advanced Video Codec
    Профиль формата                          : High@L4.1
    Параметр CABAC формата                   : Да
    Параметр ReFrames формата                : 9 кадров
    Идентификатор кодека                     : V_MPEG4/ISO/AVC
    Продолжительность                        : 1 ч. 36 м.
    Битрейт                                  : 2596 Кбит/сек
    Ширина                                   : 1024 пикселя
    Высота                                   : 432 пикселя
    Соотношение сторон                       : 2,40:1
    Режим частоты кадров                     : Постоянный
    Частота кадров                           : 24,000 кадра/сек
    Цветовое пространство                    : YUV
    Субдискретизация насыщенности            : 4:2:0
    Битовая глубина                          : 8 бит
    Тип развёртки                            : Прогрессивная
    Бит/(Пиксели*Кадры)                      : 0.245
    Размер потока                            : 1,70 Гбайт (78%)
    Библиотека кодирования                   : x264 core 146 r2538 121396c
    Настройки программы                      : cabac=1 / ref=9 / deblock=1:-3:-3 / analyse=0x3:0x113 / me=umh / subme=9 / psy=1 / psy_rd=1.00:0.00 / mixed_ref=1 / me_range=32 / chroma_me=1 / trellis=2 / 8x8dct=1 / cqm=0 / deadzone=21,11 / fast_pskip=0 / chroma_qp_offset=-2 / threads=3 / lookahead_threads=1 / sliced_threads=0 / nr=0 / decimate=1 / interlaced=0 / bluray_compat=0 / constrained_intra=0 / bframes=9 / b_pyramid=2 / b_adapt=2 / b_bias=0 / direct=3 / weightb=1 / open_gop=0 / weightp=2 / keyint=240 / keyint_min=24 / scenecut=40 / intra_refresh=0 / rc_lookahead=40 / rc=2pass / mbtree=1 / bitrate=2596 / ratetol=1.0 / qcomp=0.60 / qpmin=10 / qpmax=51 / qpstep=4 / cplxblur=20.0 / qblur=0.5 / vbv_maxrate=50000 / vbv_bufsize=62500 / nal_hrd=none / filler=0 / ip_ratio=1.40 / aq=1:1.00
    Default                                  : Да
    Forced                                   : Нет

    Аудио #1
    Идентификатор                            : 2
    Формат                                   : AC-3
    Формат/Информация                        : Audio Coding 3
    Расширение режима                        : CM (complete main)
    Параметр Endianness формата              : Big
    Идентификатор кодека                     : A_AC3
    Продолжительность                        : 1 ч. 36 м.
    Вид битрейта                             : Постоянный
    Битрейт                                  : 192 Кбит/сек
    Каналы                                   : 2 канала
    Расположение каналов                     : Front: L R
    Частота                                  : 48,0 КГц
    Метод сжатия                             : С потерями
    Размер потока                            : 132 Мбайт (6%)
    Заголовок                                : MVO - Кинопоказ
    Язык                                     : Russian
    Default                                  : Да
    Forced                                   : Нет

    Аудио #2
    Идентификатор                            : 3
    Формат                                   : AC-3
    Формат/Информация                        : Audio Coding 3
    Расширение режима                        : CM (complete main)
    Параметр Endianness формата              : Big
    Идентификатор кодека                     : A_AC3
    Продолжительность                        : 1 ч. 36 м.
    Вид битрейта                             : Постоянный
    Битрейт                                  : 448 Кбит/сек
    Каналы                                   : 6 каналов
    Расположение каналов                     : Front: L C R, Side: L R, LFE
    Частота                                  : 48,0 КГц
    Метод сжатия                             : С потерями
    Размер потока                            : 309 Мбайт (14%)
    Язык                                     : Norwegian
    Default                                  : Нет
    Forced                                   : Нет

    Текст
    Идентификатор                            : 4
    Формат                                   : UTF-8
    Идентификатор кодека                     : S_TEXT/UTF8
    Идентификатор кодека/Информация          : UTF-8 Plain Text
    Язык                                     : Norwegian
    Default                                  : Да
    Forced                                   : Нет

    Меню
    00:00:00.000                             : en:1
    00:13:11.125                             : en:2
    00:26:21.250                             : en:3
    00:38:05.458                             : en:4
    00:50:24.625                             : en:5
    01:04:10.208                             : en:6
    01:16:46.000                             : en:7
    01:31:26.375                             en:8


    Скриншоты
    [img]http://s017.radikal.ru/i427/1604/bd/76c616048881.png[/img][img]http://s45.radikal.ru/i107/1604/3f/2becfd6ac3e5.png[/img][img]http://s019.radikal.ru/i643/1604/84/bb05e0d4cd24.png[/img][img]http://i075.radikal.ru/1604/98/a7cd150e7cc2.png[/img][img]http://s16.radikal.ru/i190/1604/13/575fde857b75.png[/img][img]http://i062.radikal.ru/1604/57/7727211e6ca9.png[/img]
    Еще похожие »

    Как скачать?
    1. Качаем UTorrent версии 2.0 и выше отсюда
    2. После установки, жмем на ссылку Скачать торрент.
    3. Открываем его через utorrent.
    4. Ждем пока подключатся участники.
    5. Качаем.


    Комментарии о Капитан Саблезуб и сокровища Лама Рама / Kaptein Sabeltann og skatten i Lama Rama | HDRip-AVC
    Добавлять комментарии могут только зарегистрированные пользователи

    Зарегистрироваться или Войти


    Ближайшее в кино
    • МУЛЬТ в кино. Выпуск №80. Время открытий дата выхода 15 сентября 2018МУЛЬТ в кино. Выпуск №80. Время открытий
      Дата выхода: 15 сентября 2018
    • 40783|Трудно быть Богом|20 сентября 2018|200|300Трудно быть Богом
      Дата выхода: 20 сентября 2018
    • 463858|Лондонские поля|20 сентября 2018|200|300Лондонские поля
      Дата выхода: 20 сентября 2018
    • 991225|Проклятие монахини|20 сентября 2018|200|300Проклятие монахини
      Дата выхода: 20 сентября 2018
    • 46671|Мой друг Иван Лапшин|20 сентября 2018|200|300Мой друг Иван Лапшин
      Дата выхода: 20 сентября 2018
    • 43332|Проверка на дорогах|20 сентября 2018|200|300Проверка на дорогах
      Дата выхода: 20 сентября 2018
    • 44339|Двадцать дней без войны|20 сентября 2018|200|300Двадцать дней без войны
      Дата выхода: 20 сентября 2018
    • 1068627|Простая просьба|20 сентября 2018|200|300Простая просьба
      Дата выхода: 20 сентября 2018
    • 987695|Бои без правил|20 сентября 2018|200|300Бои без правил
      Дата выхода: 20 сентября 2018
    • 1045478|Агент Джонни Инглиш 3.0|20 сентября 2018|200|300Агент Джонни Инглиш 3.0
      Дата выхода: 20 сентября 2018
    • 1047742|Доминика|20 сентября 2018|200|300Доминика
      Дата выхода: 20 сентября 2018
    • 1031263|Храброе сердце. Заговор в королевстве|20 сентября 2018|200|300Храброе сердце. Заговор в королевстве
      Дата выхода: 20 сентября 2018
    • 1025397|Закону тут не место|20 сентября 2018|200|300Закону тут не место
      Дата выхода: 20 сентября 2018
    • 1111982|Панды 3D|20 сентября 2018|200|300Панды 3D
      Дата выхода: 20 сентября 2018
    • 1115405|Мария до Каллас|20 сентября 2018|200|300Мария до Каллас
      Дата выхода: 20 сентября 2018
    Вверх