• Игры для PS4
  • Игры для PS3
  • Игры для XBOX360
  • Игры для PC
  • Игры для PS2
  • Игры для PSP
  • Для телефонов
  • Музыка
  • Книги / Журналы
  • Обои
  • Опрос
    Откуда Вы о нас узнали?
      0
    • От знакомых2,1,false,300,full
    • Из социальных сетей2,2,false,300,full
    • Из поисковых систем2,3,false,300,full
    • Другое2,4,false,300,full
    Статистика
    Всего онлайн -
    Гостей -
    Пользователей -
    Короли трекера
    
    Благодарности () Закрыть
    Информация о фильме
    Название: Цветы
    Оригинальное название: Flowers
    Год выхода: 2016
    Жанр: драма, комедия
    Режиссер: Уилл Шарп
    В ролях: Оливия Колмэн, Джулиан Барратт, София Ди Мартино, Даниэль Ригби, Лейла Хофман, Уилл Шарп, Колин Хёрли, Энгус Райт

    О фильме:
    Комедия знакомит зрителей с неординарной семьей, остающейся единым целым, вопреки всему. Дебора - учитель музыки в школе, Моррис - преуспевает на поприще детской литературы. Эти родители стараются усмотреть за близняшками, коих зовут Эмма и Дональд. В этом же доме соседствует и мать мужа, от которой семейство хочет укрыть шаткость своих отношений. Мужа раздирают личные наклонности и тайны, а жена все время считает, что тот неравнодушен к знакомому парню-японцу, являющемся иллюстратором для всех детских сочинений.

    [img]http://imdb.snick.ru/ratefor/02/tt5619658.png[/img]
    Страна: Великобритания
    Продолжительность: ~00:29:00 серия
    Перевод: Любительский двухголосый [HamsterStudio]

    [img]http://i65.fastpic.ru/big/2015/0928/44/e7736a503095584d9ea0dc1a8f1cda44.jpg[/img]

    Файл
    Кодек: XviD
    Качество: HDTVRip
    Видео: 720x400, 991 Kbps, 25.000 fps
    Звук: MP3, 128 Kbps (2 ch)

    Семпл

    Скриншоты
    [screen]http://i78.fastpic.ru/big/2016/0502/5c/a96586bdb647b0a75c3896f332e9645c.png[/screen][screen]http://i78.fastpic.ru/big/2016/0502/6b/50855db6918585869b2bc63f26de3e6b.png[/screen][screen]http://i78.fastpic.ru/big/2016/0502/78/28e63ba2686b41fcc0a7c6ffcc97ec78.png[/screen][screen]http://i78.fastpic.ru/big/2016/0502/19/c92f102b78afdbfc8c763bdabf9aae19.png[/screen][screen]http://i78.fastpic.ru/big/2016/0502/9d/68280464468a9cbcf9e1f18ff3fe5a9d.png[/screen][screen]http://i78.fastpic.ru/big/2016/0502/19/3934278b83d9876267d087e9a834bc19.png[/screen]Свернуть


    MediaInfo
    General
    Complete name                            : /home/roma/Завантажене/Flowers.s01e01e02.HDTVRip.HamsterStudio.org.avi
    Format                                   : AVI
    Format/Info                              : Audio Video Interleave
    File size                                : 374 MiB
    Duration                                 : 46mn 16s
    Overall bit rate                         : 1 129 Kbps
    Writing application                      : VirtualDubMod 1.5.10.2 (build 2540/release)
    Writing library                          : VirtualDubMod build 2540/release

    Video
    ID                                       : 0
    Format                                   : MPEG-4 Visual
    Format profile                           : Advanced Simple@L5
    Format settings, BVOP                    : 2
    Format settings, QPel                    : No
    Format settings, GMC                     : No warppoints
    Format settings, Matrix                  : Default (H.263)
    Muxing mode                              : Packed bitstream
    Codec ID                                 : XVID
    Codec ID/Hint                            : XviD
    Duration                                 : 46mn 16s
    Bit rate                                 : 991 Kbps
    Width                                    : 720 pixels
    Height                                   : 400 pixels
    Display aspect ratio                     : 16:9
    Frame rate                               : 25.000 fps
    Color space                              : YUV
    Chroma subsampling                       : 4:2:0
    Bit depth                                : 8 bits
    Scan type                                : Progressive
    Compression mode                         : Lossy
    Bits/(Pixel*Frame)                       : 0.138
    Stream size                              : 328 MiB (88%)
    Writing library                          : XviD 67

    Audio
    ID                                       : 1
    Format                                   : MPEG Audio
    Format version                           : Version 1
    Format profile                           : Layer 3
    Mode                                     : Joint stereo
    Mode extension                           : MS Stereo
    Codec ID                                 : 55
    Codec ID/Hint                            : MP3
    Duration                                 : 46mn 16s
    Bit rate mode                            : Constant
    Bit rate                                 : 128 Kbps
    Channel(s)                               : 2 channels
    Sampling rate                            : 48.0 KHz
    Compression mode                         : Lossy
    Stream size                              : 42.4 MiB (11%)
    Alignment                                : Aligned on interleaves
    Interleave, duration                     : 40 ms (1.00 video frame)
    Interleave, preload duration             : 504 msСвернуть
    Инструкция по скачиванию
     1  Качаем uTorrent версии 2.0 и выше
     2  После установки, жмем выше под постером на ссылку Скачать [MediaGet] или Скачать .torrent
     3  Открываем скачанный файл через соответствующий клиент: MediaGet или uTorrent
     4  Ждем пока подключатся участники
     5  Качаем
    Комментарии о  Цветы / Flowers [Сезон 01 | 01-04 серии из 06] | HDTVRip 
    Ближайшее в кино
    Вверх