• Игры для PS4
  • Игры для PS3
  • Игры для XBOX360
  • Игры для PC
  • Игры для PS2
  • Игры для PSP
  • Для телефонов
  • Музыка
  • Книги / Журналы
  • Обои
  • Опрос
    Удобен ли сайт в использовании?
      0
    • Очень удобен, все понятно1,1,false,300,full
    • Удобен1,2,false,300,full
    • Средне1,3,false,300,full
    • Неудобен, трудно ориентироваться1,4,false,300,full
    • Совсем неудобен1,5,false,300,full
    Статистика
    Всего онлайн -
    Гостей -
    Пользователей -
    Короли трекера
    Благодарности () Закрыть
    Информация о фильме
    Название: Убийства по чёткам
    Оригинальное название: The Rosary Murders
    Год выхода: 1987
    Жанр:  триллер, драма, криминал, детектив
    Режиссер: Фред Уолтон
    В ролях: Дональд Сазерленд, Чарльз Дёрнинг, Роджер Анджелини, Анита Бэрон, Б. Констанс Бэрри, Белинда Бауэр, Дорис Биско, Сэнди Броад, Кит Брукс, Бетани Карпентер

    Сюжет фильма:
    В Детройте совершена серия жестоких убийств. Жертвами стали католические священники и монахини, в руках которых убийца оставляет черные чётки. А после в церкви исповедуется человек, который признаётся в убийствах, но священник Боб Кеслер, соблюдая тайну исповеди, не может сообщить об этом в полицию...

    [img]http://s43.radikal.ru/i101/1512/56/62e6219dd06d.png[/img]

    Страна: США
    Студия: First Take, Rosary Take One, Samuel Goldwyn Company
    Продолжительность: 01:45:10
    Перевод: Профессиональный (двухголосый, закадровый) | TB-6, авторский (одноголосый, закадровый) | Н. Севастьянов
    Примечание: Есть две вставки из одноголосого перевода. Первые 8 минут - одноголосый перевод.

    Файл
    Формат: AVI
    Качество: HDRip
    Видео: XviD, 704x384, 23.976 fps, 1776 kbps
    Аудио#1: Russian: 48 kHz, AC3, 2/0 (L,R) ch, ~192 kbps avg | TB-6 |
    Аудио#2: Russian: 48 kHz, AC3, 2/0 (L,R) ch, ~192 kbps avg | Н. Севастьянов | (Отдельно)



    MediaInfo
    Общее
    Полное имя                               : The.Rosary.Murders.1987.HDRip.MegaPeerThe.Rosary.Murders.1987.HDRip.MegaPeer.avi
    Формат                                   : AVI
    Формат/Информация                        : Audio Video Interleave
    Размер файла                             : 1,45 Гбайт
    Продолжительность                        : 1 ч. 45 м.
    Общий поток                              : 1978 Кбит/сек
    Программа кодирования                    : VirtualDubMod 1.5.10.3 | www.virtualdub-fr.org || (build 2550/release)
    Библиотека кодирования                   : VirtualDubMod build 2550/release

    Видео
    Идентификатор                            : 0
    Формат                                   : MPEG-4 Visual
    Профиль формата                          : Advanced Simple@L5
    Параметр BVOP формата                    : 1
    Параметр QPel формата                    : Нет
    Параметр GMC формата                     : Без точки перехода
    Параметр матрицы формата                 : Выборочная
    Идентификатор кодека                     : XVID
    Идентификатор кодека/Подсказка           : XviD
    Продолжительность                        : 1 ч. 45 м.
    Битрейт                                  : 1776 Кбит/сек
    Ширина                                   : 704 пикселя
    Высота                                   : 384 пикселя
    Соотношение сторон                       : 1,85:1
    Частота кадров                           : 23,976 (23976/1000) кадра/сек
    Цветовое пространство                    : YUV
    Субдискретизация насыщенности            : 4:2:0
    Битовая глубина                          : 8 бит
    Тип развёртки                            : Прогрессивная
    Метод сжатия                             : С потерями
    Бит/(Пиксели*Кадры)                      : 0.274
    Размер потока                            : 1,30 Гбайт (90%)
    Библиотека кодирования                   : XviD 73

    Аудио
    Идентификатор                            : 1
    Формат                                   : AC-3
    Формат/Информация                        : Audio Coding 3
    Расширение режима                        : CM (complete main)
    Параметр Endianness формата              : Big
    Идентификатор кодека                     : 2000
    Продолжительность                        : 1 ч. 45 м.
    Вид битрейта                             : Постоянный
    Битрейт                                  : 192 Кбит/сек
    Каналы                                   : 2 канала
    Расположение каналов                     : Front: L R
    Частота                                  : 48,0 КГц
    Частота кадров                           : 31,250 кадров/сек (1536 spf)
    Метод сжатия                             : С потерями
    Размер потока                            : 144 Мбайт (10%)
    Выравнивание                             : Разделение по промежуткам
    Продолжительность промежутка             : 42  мс. (1,00 видеокадр)
    Время предзагрузки промежутка            : 500  мс.
    Свернуть
    Инструкция по скачиванию
     1  Качаем uTorrent версии 2.0 и выше
     2  После установки, жмем выше под постером на ссылку Скачать [MediaGet] или Скачать .torrent
     3  Открываем скачанный файл через соответствующий клиент: MediaGet или uTorrent
     4  Ждем пока подключатся участники
     5  Качаем
    Комментарии о  Убийства по чёткам / The Rosary Murders | HDRip 
    Ближайшее в кино
    Вверх