• Игры для PS4
  • Игры для PS3
  • Игры для XBOX360
  • Игры для PC
  • Игры для PS2
  • Игры для PSP
  • Для телефонов
  • Музыка
  • Книги/Журналы
  • Обои
  •  
    Опрос
    Откуда Вы о нас узнали?
      0
    • От знакомых2,1,false,300,full
    • Из социальных сетей2,2,false,300,full
    • Из поисковых систем2,3,false,300,full
    • Другое2,4,false,300,full
    Статистика
    Загрузка...
    Стив Джобс / Steve Jobs | BDRemux 1080p
    Статус  Проверено
    В закладки
    Модератор: Max

    Стив Джобс / Steve Jobs | BDRemux 1080p [Фильмы 2015] скачать торрентом/torrent бесплатно

    Год выхода
    Категории
    Язык
    Закачал
    Max | 04 мая 2016 в 08ч 31м 58с
    Раздел
    Отзывов
    0
    Раздают: 1 Качают: 0 Скачали: 1 Размер: 30.4 GB
    Инфо о раздаче | Благодарности |
    0/5
    0
    0 5 0
    Поддержи нас — расскажи друзьям!
    Orbitum
    Новый интернет-браузер Быстрее загружает сайты Экономит интернет—трафик Меняет оформление страницы ВК Блокирует всю рекламу на сайтах Загружает торренты как

    µTorrent

    клиент
    Объеденяет все твои чаты из соц. сетей в один Проигрывает твою музыку не заходя во ВКонтакте
    Скачать и многое другое... Подробности на сайте производителя
    Информация о фильме
    Название: Стив Джобс
    Оригинальное название: Steve Jobs
    Год выхода: 2015
    Жанр: Драма, биография
    Режиссер: Дэнни Бойл
    В ролях: Майкл Фассбендер, Сет Роген, Джефф Дэниелс, Кейт Уинслет, Майкл Стулбарг, Кэтрин Уотерстон, Перла Аней-Жардине, Рипли Собо, Макензи Мосс, Сара Снук, Джон Ортис, Адам Шапиро, Джон Стин, Стэн Рот, Михран Слуджиан, Роберт Энтони Питерс, Норин Ли, Гэйл Фентон, Карен Кан, Лили Танг Кристал

    О фильме:
    Фильм «Стив Джобс» - биографическая лента об одном из пионеров эры IT-технологий. Картина разделена на три условные части, каждая из которых рассказывает о важном для Джобса периоде, связанном с выпуском ключевых продуктов его компании. В 1984 году Стив вместе с командой разработчиков презентовал Макинтош. 1988 год - Apple теряла долю на рынке, испытывала сложности с инновациями и была вынуждена обратиться к бывшему создателю за помощью, попутно купив NEXT, где он создал компьютер, достойный внимания. И, наконец, в 1998 году Джобс готовится показать миру iMac. С этого периода вся история Стива делится на до и после. А Apple становится компанией, опережающей время.



    Страна: США
    Студия: Cloud Eight Films, Decibel Films, Digital Image Associates, Legendary Pictures, Management 360, Scott Rudin Productions
    Продолжительность: 02:02:21
    Перевод: Дублированный | Лицензия

    Файл
    Кодек: MPEG-4
    Качество: BDRemux 1080p
    Видео: 1920x1080, 31.3 Mbit/s, 23.976 fps
    Звук:
    Аудио #01: 48 kHz, AC3, 5.1, 448 Kbps | Дублированный, Лицензия (Blu-Ray CEE) | [img]http://lostpix.com/img/2016-04/26/ecarul7mj2gcrjkf30af8u4tk.gif[/img]
    Аудио #02: 48 kHz, DTS-HD MA, 5.1, 3840 kbps | Оригинал | [img]http://lostpix.com/img/2016-04/26/fqaum985y2vaej5x7o305zqks.gif[/img]
    Субтитры: Русские (forced, full), английские

    [img]http://lostpix.com/img/2016-04/26/t7j5quq3mx3swp98cm2qxlqen.gif[/img]

    MI
    Общее
    Уникальный идентификатор                 : 218668432503422621157056508568713391273 (0xA4820219B9FF82BA83A59BD05D616CA9)
    Полное имя                               : F:VideoWellSteve.Jobs.2015.BDREMUX.1080p.ExKinoRay.mkv
    Формат                                   : Matroska
    Версия формата                           : Version 4 / Version 2
    Размер файла                             : 30,4 Гбайт
    Продолжительность                        : 2 ч. 2 м.
    Режим общего битрейта                    : Переменный
    Общий поток                              : 35,6 Мбит/сек
    Название фильма                          : Steve.Jobs.2015.BDREMUX.1080p.ExKinoRay
    Дата кодирования                         : UTC 2016-05-03 23:42:48
    Программа кодирования                    : mkvmerge v8.3.0 ("Over the Horizon") 64bit
    Библиотека кодирования                   : libebml v1.3.1 + libmatroska v1.4.2

    Видео
    Идентификатор                            : 1
    Формат                                   : AVC
    Формат/Информация                        : Advanced Video Codec
    Профиль формата                          : High@L4.1
    Параметр CABAC формата                   : Да
    Параметр ReFrames формата                : 4 кадра
    Параметр GOP формата                     : M=3, N=12
    Идентификатор кодека                     : V_MPEG4/ISO/AVC
    Продолжительность                        : 2 ч. 2 м.
    Вид битрейта                             : Переменный
    Битрейт                                  : 31,3 Мбит/сек
    Максимальный битрейт                     : 35,0 Мбит/сек
    Ширина                                   : 1920 пикселей
    Высота                                   : 1080 пикселей
    Соотношение сторон                       : 16:9
    Режим частоты кадров                     : Постоянный
    Частота кадров                           : 23,976 (24000/1001) кадра/сек
    Цветовое пространство                    : YUV
    Субдискретизация насыщенности            : 4:2:0
    Битовая глубина                          : 8 бит
    Тип развёртки                            : Прогрессивная
    Бит/(Пиксели*Кадры)                      : 0.629
    Размер потока                            : 26,7 Гбайт (88%)
    Заголовок                                : Steve.Jobs.2015.BDREMUX.1080p.ExKinoRay.***селезень***
    Язык                                     : English
    Default                                  : Да
    Forced                                   : Нет

    Аудио #1
    Идентификатор                            : 2
    Формат                                   : AC-3
    Формат/Информация                        : Audio Coding 3
    Расширение режима                        : CM (complete main)
    Параметр Endianness формата              : Big
    Идентификатор кодека                     : A_AC3
    Продолжительность                        : 2 ч. 2 м.
    Вид битрейта                             : Постоянный
    Битрейт                                  : 448 Кбит/сек
    Каналы                                   : 6 каналов
    Расположение каналов                     : Front: L C R, Side: L R, LFE
    Частота                                  : 48,0 КГц
    Частота кадров                           : 31,250 кадров/сек (1536 spf)
    Метод сжатия                             : С потерями
    Размер потока                            : 392 Мбайт (1%)
    Заголовок                                : DUB [License.Blu-Ray.CEE]
    Язык                                     : Russian
    Default                                  : Да
    Forced                                   : Нет

    Аудио #2
    Идентификатор                            : 3
    Формат                                   : DTS
    Формат/Информация                        : Digital Theater Systems
    Профиль формата                          : MA / Core
    Режим                                    : 16
    Параметр Endianness формата              : Big
    Идентификатор кодека                     : A_DTS
    Продолжительность                        : 2 ч. 2 м.
    Вид битрейта                             : Переменный / Постоянный
    Битрейт                                  : 3840 Кбит/сек / 1509 Кбит/сек
    Каналы                                   : 6 каналов
    Расположение каналов                     : Front: L C R, Side: L R, LFE
    Частота                                  : 48,0 КГц
    Частота кадров                           : 93,750 кадра/сек (512 spf)
    Битовая глубина                          : 24 бит
    Метод сжатия                             : Без потерь / Lossy
    Размер потока                            : 3,28 Гбайт (11%)
    Язык                                     : English
    Default                                  : Нет
    Forced                                   : Нет

    Текст #1
    Идентификатор                            : 4
    Формат                                   : UTF-8
    Идентификатор кодека                     : S_TEXT/UTF8
    Идентификатор кодека/Информация          : UTF-8 Plain Text
    Продолжительность                        : 2 ч. 1 м.
    Битрейт                                  : 1 бит/сек
    Count of elements                        : 30
    Размер потока                            : 1,26 Кбайт (0%)
    Заголовок                                : Forced
    Язык                                     : Russian
    Default                                  : Да
    Forced                                   : Нет

    Текст #2
    Идентификатор                            : 5
    Формат                                   : UTF-8
    Идентификатор кодека                     : S_TEXT/UTF8
    Идентификатор кодека/Информация          : UTF-8 Plain Text
    Продолжительность                        : 2 ч. 1 м.
    Битрейт                                  : 138 бит/сек
    Count of elements                        : 2382
    Размер потока                            : 124 Кбайт (0%)
    Заголовок                                : Full
    Язык                                     : Russian
    Default                                  : Нет
    Forced                                   : Нет

    Текст #3
    Идентификатор                            : 6
    Формат                                   : UTF-8
    Идентификатор кодека                     : S_TEXT/UTF8
    Идентификатор кодека/Информация          : UTF-8 Plain Text
    Продолжительность                        : 1 ч. 57 м.
    Битрейт                                  : 107 бит/сек
    Count of elements                        : 2519
    Размер потока                            : 91,8 Кбайт (0%)
    Язык                                     : English
    Default                                  : Нет
    Forced                                   : Нет

    Меню
    00:00:00.000                             : :Chapter 01
    00:04:52.417                             : :Chapter 02
    00:11:47.415                             : :Chapter 03
    00:15:56.205                             : :Chapter 04
    00:24:39.769                             : :Chapter 05
    00:29:00.321                             : :Chapter 06
    00:35:35.716                             : :Chapter 07
    00:41:45.336                             : :Chapter 08
    00:47:28.929                             : :Chapter 09
    00:52:04.538                             : :Chapter 10
    00:57:24.983                             : :Chapter 11
    01:01:17.799                             : :Chapter 12
    01:10:43.405                             : :Chapter 13
    01:13:47.423                             : :Chapter 14
    01:19:03.697                             : :Chapter 15
    01:25:57.694                             : :Chapter 16
    01:33:39.280                             : :Chapter 17
    01:42:26.431                             : :Chapter 18
    01:49:10.710                             : :Chapter 19
    01:58:14.462                             : :Chapter 20


    Скриншоты
    [img]http://lostpix.com/img/2016-05/04/h94e0gnfjydu9iwna2ibj5410.jpg[/img][img]http://lostpix.com/img/2016-05/04/3x3mt2trvyr2bxbz1vx0hba0j.jpg[/img][img]http://lostpix.com/img/2016-05/04/bjd5adwx79gxryigah4b7uwut.jpg[/img][img]http://lostpix.com/img/2016-05/04/5vt45vc9pc19a7wsv6y267v73.jpg[/img][img]http://lostpix.com/img/2016-05/04/ftnzn9jg45j3jl5lc4m9p6ulu.jpg[/img][img]http://lostpix.com/img/2016-05/04/mgq8djdxw3avbho6rhf4br65k.jpg[/img]
    Еще похожие »

    Как скачать?
    1. Качаем UTorrent версии 2.0 и выше отсюда
    2. После установки, жмем на ссылку Скачать торрент.
    3. Открываем его через utorrent.
    4. Ждем пока подключатся участники.
    5. Качаем.


    Комментарии о Стив Джобс / Steve Jobs | BDRemux 1080p
    Добавлять комментарии могут только зарегистрированные пользователи

    Зарегистрироваться или Войти


    Ближайшее в кино
    • МУЛЬТ в кино. Выпуск №80. Время открытий дата выхода 15 сентября 2018МУЛЬТ в кино. Выпуск №80. Время открытий
      Дата выхода: 15 сентября 2018
    • 40783|Трудно быть Богом|20 сентября 2018|200|300Трудно быть Богом
      Дата выхода: 20 сентября 2018
    • 463858|Лондонские поля|20 сентября 2018|200|300Лондонские поля
      Дата выхода: 20 сентября 2018
    • 991225|Проклятие монахини|20 сентября 2018|200|300Проклятие монахини
      Дата выхода: 20 сентября 2018
    • 46671|Мой друг Иван Лапшин|20 сентября 2018|200|300Мой друг Иван Лапшин
      Дата выхода: 20 сентября 2018
    • 43332|Проверка на дорогах|20 сентября 2018|200|300Проверка на дорогах
      Дата выхода: 20 сентября 2018
    • 44339|Двадцать дней без войны|20 сентября 2018|200|300Двадцать дней без войны
      Дата выхода: 20 сентября 2018
    • 1068627|Простая просьба|20 сентября 2018|200|300Простая просьба
      Дата выхода: 20 сентября 2018
    • 987695|Бои без правил|20 сентября 2018|200|300Бои без правил
      Дата выхода: 20 сентября 2018
    • 1045478|Агент Джонни Инглиш 3.0|20 сентября 2018|200|300Агент Джонни Инглиш 3.0
      Дата выхода: 20 сентября 2018
    • 1047742|Доминика|20 сентября 2018|200|300Доминика
      Дата выхода: 20 сентября 2018
    • 1031263|Храброе сердце. Заговор в королевстве|20 сентября 2018|200|300Храброе сердце. Заговор в королевстве
      Дата выхода: 20 сентября 2018
    • 1025397|Закону тут не место|20 сентября 2018|200|300Закону тут не место
      Дата выхода: 20 сентября 2018
    • 1111982|Панды 3D|20 сентября 2018|200|300Панды 3D
      Дата выхода: 20 сентября 2018
    • 1115405|Мария до Каллас|20 сентября 2018|200|300Мария до Каллас
      Дата выхода: 20 сентября 2018
    Вверх