• Игры для PS4
  • Игры для PS3
  • Игры для XBOX360
  • Игры для PC
  • Игры для PS2
  • Игры для PSP
  • Для телефонов
  • Музыка
  • Книги/Журналы
  • Обои
  •  
    Опрос
    Откуда Вы о нас узнали?
      0
    • От знакомых2,1,false,300,full
    • Из социальных сетей2,2,false,300,full
    • Из поисковых систем2,3,false,300,full
    • Другое2,4,false,300,full
    Статистика
    Загрузка...
    Женщина в золотом / Woman in Gold | BDRip-AVC
    Статус  Проверено
    В закладки
    Модератор: Max

    Женщина в золотом / Woman in Gold | BDRip-AVC [Фильмы 2015] скачать торрентом/torrent бесплатно

    Год выхода
    Категории
    Язык
    Закачал
    Аноним | 04 мая 2016 в 12ч 48м 18с
    Раздел
    Отзывов
    0
    Раздают: 6 Качают: 0 Скачали: 10 Размер: 2.18 GB
    Инфо о раздаче | Благодарности |
    0/5
    0
    0 5 0
    Поддержи нас — расскажи друзьям!
    Orbitum
    Новый интернет-браузер Быстрее загружает сайты Экономит интернет—трафик Меняет оформление страницы ВК Блокирует всю рекламу на сайтах Загружает торренты как

    µTorrent

    клиент
    Объеденяет все твои чаты из соц. сетей в один Проигрывает твою музыку не заходя во ВКонтакте
    Скачать и многое другое... Подробности на сайте производителя
    Оригинальное название: Woman in Gold
    Год выпуска: 2015
    Жанр: драма, история
    Выпущено: Великобритания
    Режиссер: Саймон Кертис
    В ролях: Хелен Миррен , Райан Рейнольдс , Даниэль Брюль , Кэти Холмс , Татьяна Маслани , Макс Айронс , Чарльз Дэнс , Элизабет МакГоверн , Джонатан Прайс , Антье Трауэ , Фрэнсис Фишер , Мориц Бляйбтрой
    Перевод: Профессиональный многоголосый


    Сюжет фильма:
    История Марии Альтманн, которая пытается добиться справедливости - вернуть ценности, отобранные у ее семьи нацистами несколько десятилетий назад. Среди культурного достояния женщины известная картина Густава Климта «Портрет Адели Блох-Бауэр», которую иногда называют «Золотая Адель». Вместе с неопытным, но отважным молодым адвокатом, женщина пытается доказать свои права на наследие предков.



    Качество: BDRip-AVC
    Формат: AVC  (библиотека кодирования x.264)
    Контейнер (Расширение): MKV
    Видео: 1024x428, 1955 Кбит/сек, 23,976 кадр/сек, 0,186 Бит/[Пиксели*Кадры]
    Аудио №1: русский / AC3 / 5.1 / 48 kHz / 448 kbps / 16 bit |Профессиональный многоголосый, FocusStudio|
    Аудио №2: английский / AC3 / 5.1 / 48 kHz / 448 kbps /
    Субтитры: русские, английские (Forced), английские
    Навигация по главам(Чаптеры): есть
    Продолжительность: 01:49:17

    MediaInfo

    Format                                   : Matroska
    Format version                           : Version 2
    File size                                : 2.18 GiB
    Duration                                 : 1h 49mn
    Overall bit rate                         : 2 852 Kbps
    Movie name                               : Woman in Gold.(2015).BDRip-AVC.[denis100]
    Encoded date                             : UTC 2016-05-04 08:36:55
    Writing application                      : mkvmerge v5.8.0 ("No Sleep / Pillow") built on Sep  2 2012 15:37:04
    Writing library                          : libebml v1.2.3 + libmatroska v1.3.0

    Video
    ID                                       : 1
    Format                                   : AVC
    Format/Info                              : Advanced Video Codec
    Format profile                           : High@L4.1
    Format settings, CABAC                   : Yes
    Format settings, ReFrames                : 11 frames
    Codec ID                                 : V_MPEG4/ISO/AVC
    Duration                                 : 1h 49mn
    Bit rate                                 : 1 955 Kbps
    Width                                    : 1 024 pixels
    Height                                   : 428 pixels
    Display aspect ratio                     : 2.40:1
    Frame rate                               : 23.976 fps
    Color space                              : YUV
    Chroma subsampling                       : 4:2:0
    Bit depth                                : 8 bits
    Scan type                                : Progressive
    Bits/(Pixel*Frame)                       : 0.186
    Stream size                              : 1.45 GiB (67%)
    Title                                    : Woman in Gold.(2015).BDRip-AVC.[denis100]
    Writing library                          : x264 core 148 r2692 64f4e24
    Encoding settings                        : cabac=1 / ref=11 / deblock=1:-3:-3 / analyse=0x3:0x133 / me=umh / subme=11 / psy=1 / psy_rd=1.00:0.00 / mixed_ref=1 / me_range=32 / chroma_me=1 / trellis=2 / 8x8dct=1 / cqm=0 / deadzone=21,11 / fast_pskip=0 / chroma_qp_offset=-2 / threads=6 / lookahead_threads=1 / sliced_threads=0 / nr=0 / decimate=1 / interlaced=0 / bluray_compat=0 / constrained_intra=0 / bframes=10 / b_pyramid=2 / b_adapt=2 / b_bias=0 / direct=3 / weightb=1 / open_gop=0 / weightp=2 / keyint=240 / keyint_min=23 / scenecut=40 / intra_refresh=0 / rc=2pass / mbtree=0 / bitrate=1955 / ratetol=1.0 / qcomp=0.60 / qpmin=0 / qpmax=69 / qpstep=4 / cplxblur=20.0 / qblur=0.5 / ip_ratio=1.40 / pb_ratio=1.30 / aq=1:1.00
    Language                                 : English
    Default                                  : Yes
    Forced                                   : No

    Audio #1
    ID                                       : 2
    Format                                   : AC-3
    Format/Info                              : Audio Coding 3
    Mode extension                           : CM (complete main)
    Codec ID                                 : A_AC3
    Duration                                 : 1h 49mn
    Bit rate mode                            : Constant
    Bit rate                                 : 448 Kbps
    Channel(s)                               : 6 channels
    Channel positions                        : Front: L C R, Side: L R, LFE
    Sampling rate                            : 48.0 KHz
    Bit depth                                : 16 bits
    Compression mode                         : Lossy
    Stream size                              : 350 MiB (16%)
    Title                                    : MVO, FocusStudio
    Language                                 : Russian
    Default                                  : Yes
    Forced                                   : No

    Audio #2
    ID                                       : 3
    Format                                   : AC-3
    Format/Info                              : Audio Coding 3
    Mode extension                           : CM (complete main)
    Codec ID                                 : A_AC3
    Duration                                 : 1h 49mn
    Bit rate mode                            : Constant
    Bit rate                                 : 448 Kbps
    Channel(s)                               : 6 channels
    Channel positions                        : Front: L C R, Side: L R, LFE
    Sampling rate                            : 48.0 KHz
    Bit depth                                : 16 bits
    Compression mode                         : Lossy
    Stream size                              : 350 MiB (16%)
    Language                                 : English
    Default                                  : No
    Forced                                   : No

    Text #1
    ID                                       : 4
    Format                                   : UTF-8
    Codec ID                                 : S_TEXT/UTF8
    Codec ID/Info                            : UTF-8 Plain Text
    Language                                 : Russian
    Default                                  : No
    Forced                                   : No

    Text #2
    ID                                       : 5
    Format                                   : UTF-8
    Codec ID                                 : S_TEXT/UTF8
    Codec ID/Info                            : UTF-8 Plain Text
    Title                                    : Forced
    Language                                 : English
    Default                                  : No
    Forced                                   : No

    Text #3
    ID                                       : 6
    Format                                   : UTF-8
    Codec ID                                 : S_TEXT/UTF8
    Codec ID/Info                            : UTF-8 Plain Text
    Language                                 : English
    Default                                  : No
    Forced                                   : No

    Menu
    00:00:00.000                             : en:Chapter 01
    00:04:50.207                             : en:Chapter 02
    00:10:04.687                             : en:Chapter 03
    00:16:42.001                             : en:Chapter 04
    00:21:47.139                             : en:Chapter 05
    00:29:48.745                             : en:Chapter 06
    00:35:53.526                             : en:Chapter 07
    00:41:57.557                             : en:Chapter 08
    00:46:00.800                             : en:Chapter 09
    00:55:15.687                             : en:Chapter 10
    01:00:26.206                             : en:Chapter 11
    01:08:10.586                             : en:Chapter 12
    01:13:37.705                             : en:Chapter 13
    01:19:46.740                             : en:Chapter 14
    01:24:30.983                             : en:Chapter 15
    01:30:09.070                             : en:Chapter 16
    01:36:55.977                             : en:Chapter 17
    01:40:35.738                             : en:Chapter 18



    x264

    x264 [info]: frame I:1466  Avg QP:12.51  size: 76687
    x264 [info]: frame P:33615 Avg QP:15.20  size: 22329
    x264 [info]: frame B:122144 Avg QP:16.51  size:  6046


    Скриншоты
    [img]http://i79.fastpic.ru/big/2016/0504/cf/685beb6ac4d046927664e53007e23fcf.png[/img][img]http://i80.fastpic.ru/big/2016/0504/11/7299e7eaf86e7b7e18aa2cd176d3eb11.png[/img][img]http://i78.fastpic.ru/big/2016/0504/69/be8798e795370a0ed75f70f83d01bb69.png[/img][img]http://i78.fastpic.ru/big/2016/0504/43/df3d0aeb38dc4ce651bcde6ffe8cf543.png[/img][img]http://i78.fastpic.ru/big/2016/0504/3e/b6a3f74295b64e4dc6c6f3f1412d1d3e.png[/img][img]http://i80.fastpic.ru/big/2016/0504/97/0b07ace6e981f8a575f4169a0b1ccb97.png[/img]
    Еще похожие »

    Как скачать?
    1. Качаем UTorrent версии 2.0 и выше отсюда
    2. После установки, жмем на ссылку Скачать торрент.
    3. Открываем его через utorrent.
    4. Ждем пока подключатся участники.
    5. Качаем.


    Комментарии о Женщина в золотом / Woman in Gold | BDRip-AVC
    Добавлять комментарии могут только зарегистрированные пользователи

    Зарегистрироваться или Войти


    Ближайшее в кино
    • МУЛЬТ в кино. Выпуск №80. Время открытий дата выхода 15 сентября 2018МУЛЬТ в кино. Выпуск №80. Время открытий
      Дата выхода: 15 сентября 2018
    • 40783|Трудно быть Богом|20 сентября 2018|200|300Трудно быть Богом
      Дата выхода: 20 сентября 2018
    • 463858|Лондонские поля|20 сентября 2018|200|300Лондонские поля
      Дата выхода: 20 сентября 2018
    • 991225|Проклятие монахини|20 сентября 2018|200|300Проклятие монахини
      Дата выхода: 20 сентября 2018
    • 46671|Мой друг Иван Лапшин|20 сентября 2018|200|300Мой друг Иван Лапшин
      Дата выхода: 20 сентября 2018
    • 43332|Проверка на дорогах|20 сентября 2018|200|300Проверка на дорогах
      Дата выхода: 20 сентября 2018
    • 44339|Двадцать дней без войны|20 сентября 2018|200|300Двадцать дней без войны
      Дата выхода: 20 сентября 2018
    • 1068627|Простая просьба|20 сентября 2018|200|300Простая просьба
      Дата выхода: 20 сентября 2018
    • 987695|Бои без правил|20 сентября 2018|200|300Бои без правил
      Дата выхода: 20 сентября 2018
    • 1045478|Агент Джонни Инглиш 3.0|20 сентября 2018|200|300Агент Джонни Инглиш 3.0
      Дата выхода: 20 сентября 2018
    • 1047742|Доминика|20 сентября 2018|200|300Доминика
      Дата выхода: 20 сентября 2018
    • 1031263|Храброе сердце. Заговор в королевстве|20 сентября 2018|200|300Храброе сердце. Заговор в королевстве
      Дата выхода: 20 сентября 2018
    • 1025397|Закону тут не место|20 сентября 2018|200|300Закону тут не место
      Дата выхода: 20 сентября 2018
    • 1111982|Панды 3D|20 сентября 2018|200|300Панды 3D
      Дата выхода: 20 сентября 2018
    • 1115405|Мария до Каллас|20 сентября 2018|200|300Мария до Каллас
      Дата выхода: 20 сентября 2018
    Вверх