• Игры для PS4
  • Игры для PS3
  • Игры для XBOX360
  • Игры для PC
  • Игры для PS2
  • Игры для PSP
  • Для телефонов
  • Музыка
  • Книги/Журналы
  • Обои
  •  
    Опрос
    Откуда Вы о нас узнали?
      0
    • От знакомых2,1,false,300,full
    • Из социальных сетей2,2,false,300,full
    • Из поисковых систем2,3,false,300,full
    • Другое2,4,false,300,full
    Статистика
    Загрузка...
    Foreigner - Rockin' At The Ryman 2010 + Bonus Tracks + Videos
    Статус  Проверено
    В закладки
    Модератор: Max

    Foreigner - Rockin' At The Ryman 2010 + Bonus Tracks + Videos [Музыка 2011] скачать торрентом/torrent бесплатно

    Год выхода
    Категории
    Закачал
    Max | 04 мая 2016 в 20ч 10м 18с
    Раздел
    Отзывов
    0
    Раздают: 0 Качают: 0 Скачали: 0 Размер: 12.34 GB
    Инфо о раздаче | Благодарности |
    0/5
    0
    0 5 0
    Поддержи нас — расскажи друзьям!
    Orbitum
    Новый интернет-браузер Быстрее загружает сайты Экономит интернет—трафик Меняет оформление страницы ВК Блокирует всю рекламу на сайтах Загружает торренты как

    µTorrent

    клиент
    Объеденяет все твои чаты из соц. сетей в один Проигрывает твою музыку не заходя во ВКонтакте
    Скачать и многое другое... Подробности на сайте производителя
    Название: Foreigner - Rockin" At The Ryman 2010
    Исполнитель: Foreigner
    Год выпуска: 2011
    Жанр:  Hard Rock, Soft Rock
    Продолжительность: 01:46:35+00:25:09+00:04:05

    Состав:
    Mick Jones - Lead Guitar, Keys and Backing Vocals
    Kelly Hansen - Vocals
    Jeff Pilson - Bass and Backing Vocals
    Tom Gimbel - Guitars, Saxophone & Backing Vocals
    Brian Tichy - Drums & Backing Vocals
    Michael Bluestein - Keyboards & Backing Vocals

    Описание: Концерт 16 марта 2010 года в Ryman Theatre, в Нашвилле, США. Прозвучали как композиции из нового альбома, так и всеми любимые хиты группы.
    В раздачу включены бонусы с диска:
    1. Отдельные концертные выступления группы объединены в один файл.
    2. Видеоклип "When It Comes To Love".  

    Треклист:
    01. Double Vision
    02. Head Games
    03. Cold As Ice
    04. In Pieces
    05. Blue Morning, Blue Day
    06. Waiting For A Girl Like You
    07. When It Comes To Love
    08. Dirty White Boy
    09. Starrider
    10. Feels Like The First Time
    11. Urgent
    12. Keyboard / Drum solos
    13. Juke Box Hero
    14. Long, Long Way From Home
    15. I Want To Know What Love Is
    16. Hot Blooded
    Bonus Features:
    17. Night Life
    18. Can’t Slow Down
    19. Too Late
    20. Urgent
    21. Say You Will
    Videos:
    22. When It Comes To Love

    Качество: BDRip 1080p
    Формат: MKV
    Видео кодек: H264
    Аудио кодек: DTS, PCM
    Видео: MPEG4 Video (H264), 1920x1080, 29.97fps, 10.0 Mbps
    Аудио: DTS, 48000 Hz, 6ch, 1509 kbps
    Аудио: PCM, 48000 Hz, 2ch, 1536 kbps

    Bonus:
    Качество: BDRip 1080p
    Формат: MKV
    Видео кодек: H264
    Аудио кодек: DTS
    Видео: MPEG4 Video (H264), 1920x1080, 29.97fps, 11.3 Mbps
    Аудио: DTS, 48000 Hz, 2ch, 1509 kbps

    Videos:
    Качество: BDRip 1080p
    Формат: MKV
    Видео кодек: H264
    Аудио кодек: DTS, PCM
    Видео: MPEG4 Video (H264), 1920x1080, 29.97fps, 10.0 Mbps
    Аудио: DTS, 48000 Hz, 2ch, 1509 kbps
    Аудио: PCM, 48000 Hz, 2ch, 1536 kbps

    Сэмпл
    Сэмпл Bonus
    Сэмпл Videos

    MediaInfo

    General
    Unique ID                      : 218715340752464204147795005511267066887 (0xA48B0ADB113F846A80CEA56BBB792407)
    Complete name                  : F:Torrent 22011.Foreigner.renta231 Foreigner - Rockin" At The Ryman.mkv
    Format                         : Matroska
    Format version                 : Version 4 / Version 2
    File size                      : 9.71 GiB
    Duration                       : 1h 46mn
    Overall bit rate               : 13.0 Mbps
    Movie name                     : 2011 Foreigner - Rockin" At The Ryman / renta23
    Encoded date                   : UTC 2016-05-04 13:11:13
    Writing application            : mkvmerge v8.3.0 ("Over the Horizon") 64bit
    Writing library                : libebml v1.3.1 + libmatroska v1.4.2

    Video
    ID                             : 1
    Format                         : AVC
    Format/Info                    : Advanced Video Codec
    Format profile                 : High@L4.1
    Format settings, CABAC         : Yes
    Format settings, ReFrames      : 4 frames
    Codec ID                       : V_MPEG4/ISO/AVC
    Duration                       : 1h 46mn
    Bit rate                       : 10 000 Kbps
    Width                          : 1 920 pixels
    Height                         : 1 080 pixels
    Display aspect ratio           : 16:9
    Frame rate mode                : Constant
    Frame rate                     : 29.970 (30000/1001) fps
    Color space                    : YUV
    Chroma subsampling             : 4:2:0
    Bit depth                      : 8 bits
    Scan type                      : Progressive
    Bits/(Pixel*Frame)             : 0.161
    Stream size                    : 7.45 GiB (77%)
    Title                          : 2011 Foreigner - Rockin" At The Ryman
    Writing library                : x264 core 146 r2538 121396c
    Encoding settings              : cabac=1 / ref=4 / deblock=1:-1:-1 / analyse=0x3:0x133 / me=umh / subme=11 / psy=1 / psy_rd=1.07:0.23 / mixed_ref=1 / me_range=24 / chroma_me=1 / trellis=2 / 8x8dct=1 / cqm=0 / deadzone=21,11 / fast_pskip=0 / chroma_qp_offset=-3 / threads=12 / lookahead_threads=3 / sliced_threads=0 / nr=0 / decimate=1 / interlaced=0 / bluray_compat=0 / constrained_intra=0 / bframes=10 / b_pyramid=2 / b_adapt=2 / b_bias=0 / direct=3 / weightb=1 / open_gop=0 / weightp=2 / keyint=250 / keyint_min=25 / scenecut=40 / intra_refresh=0 / rc=2pass / mbtree=0 / bitrate=10000 / ratetol=1.0 / qcomp=0.60 / qpmin=0 / qpmax=69 / qpstep=4 / cplxblur=20.0 / qblur=0.5 / ip_ratio=1.40 / pb_ratio=1.30 / aq=2:1.00
    Language                       : English
    Default                        : Yes
    Forced                         : No

    Audio #1
    ID                             : 2
    Format                         : DTS
    Format/Info                    : Digital Theater Systems
    Mode                           : 16
    Format settings, Endianness    : Big
    Codec ID                       : A_DTS
    Duration                       : 1h 46mn
    Bit rate mode                  : Constant
    Bit rate                       : 1 509 Kbps
    Channel(s)                     : 6 channels
    Channel positions              : Front: L C R, Side: L R, LFE
    Sampling rate                  : 48.0 KHz
    Frame rate                     : 93.750 fps (512 spf)
    Bit depth                      : 16 bits
    Compression mode               : Lossy
    Stream size                    : 1.12 GiB (12%)
    Title                          : DTS 5.1
    Language                       : English
    Default                        : Yes
    Forced                         : No

    Audio #2
    ID                             : 3
    Format                         : PCM
    Codec ID                       : A_PCM/INT/LIT
    Duration                       : 1h 46mn
    Bit rate mode                  : Constant
    Bit rate                       : 1 536 Kbps
    Channel(s)                     : 2 channels
    Sampling rate                  : 48.0 KHz
    Frame rate                     : 32.000 fps (1500 spf)
    Bit depth                      : 16 bits
    Stream size                    : 1.14 GiB (12%)
    Title                          : PCM Stereo
    Language                       : English
    Default                        : No
    Forced                         : No

    Menu
    00:00:00.000                   : en:Chapter 01
    00:03:43.923                   : en:Chapter 02
    00:09:35.041                   : en:Chapter 03
    00:15:17.917                   : en:Chapter 04
    00:20:06.371                   : en:Chapter 05
    00:23:29.775                   : en:Chapter 06
    00:29:25.263                   : en:Chapter 07
    00:34:15.219                   : en:Chapter 08
    00:39:30.601                   : en:Chapter 09
    00:49:28.765                   : en:Chapter 10
    00:54:52.289                   : en:Chapter 11
    01:02:45.161                   : en:Chapter 12
    01:13:16.825                   : en:Chapter 13
    01:25:32.427                   : en:Chapter 14
    01:29:31.566                   : en:Chapter 15
    01:38:15.222                   : en:Chapter 16
    01:44:59.960                   : en:Chapter 17
    01:46:32.052                   : en:Chapter 18



    MediaInfo Bonus

    General
    Unique ID                      : 185452043699672015951828690948999405442 (0x8B84C3B116918E0CB9EEBAA6C38CDF82)
    Complete name                  : F:Torrent 22011.Foreigner.renta232 Bonus Concert.mkv
    Format                         : Matroska
    Format version                 : Version 4 / Version 2
    File size                      : 2.25 GiB
    Duration                       : 25mn 9s
    Overall bit rate               : 12.8 Mbps
    Movie name                     : Bonus Concert / renta23
    Encoded date                   : UTC 2016-05-04 11:55:49
    Writing application            : mkvmerge v8.3.0 ("Over the Horizon") 64bit
    Writing library                : libebml v1.3.1 + libmatroska v1.4.2

    Video
    ID                             : 1
    Format                         : AVC
    Format/Info                    : Advanced Video Codec
    Format profile                 : High@L4.1
    Format settings, CABAC         : Yes
    Format settings, ReFrames      : 4 frames
    Codec ID                       : V_MPEG4/ISO/AVC
    Duration                       : 25mn 9s
    Bit rate                       : 11.3 Mbps
    Width                          : 1 920 pixels
    Height                         : 1 080 pixels
    Display aspect ratio           : 16:9
    Frame rate mode                : Constant
    Frame rate                     : 29.970 (30000/1001) fps
    Color space                    : YUV
    Chroma subsampling             : 4:2:0
    Bit depth                      : 8 bits
    Scan type                      : Progressive
    Bits/(Pixel*Frame)             : 0.182
    Stream size                    : 1.99 GiB (88%)
    Title                          : Bonus Concert
    Writing library                : x264 core 146 r2538 121396c
    Encoding settings              : cabac=1 / ref=4 / deblock=1:-1:-1 / analyse=0x3:0x133 / me=umh / subme=11 / psy=1 / psy_rd=1.07:0.23 / mixed_ref=1 / me_range=24 / chroma_me=1 / trellis=2 / 8x8dct=1 / cqm=0 / deadzone=21,11 / fast_pskip=0 / chroma_qp_offset=-3 / threads=12 / lookahead_threads=3 / sliced_threads=0 / nr=0 / decimate=1 / interlaced=0 / bluray_compat=0 / constrained_intra=0 / bframes=10 / b_pyramid=2 / b_adapt=2 / b_bias=0 / direct=3 / weightb=1 / open_gop=0 / weightp=2 / keyint=250 / keyint_min=25 / scenecut=40 / intra_refresh=0 / rc=2pass / mbtree=0 / bitrate=11300 / ratetol=1.0 / qcomp=0.60 / qpmin=0 / qpmax=69 / qpstep=4 / cplxblur=20.0 / qblur=0.5 / ip_ratio=1.40 / pb_ratio=1.30 / aq=2:1.00
    Language                       : English
    Default                        : Yes
    Forced                         : No

    Audio
    ID                             : 2
    Format                         : DTS
    Format/Info                    : Digital Theater Systems
    Mode                           : 16
    Format settings, Endianness    : Big
    Codec ID                       : A_DTS
    Duration                       : 25mn 9s
    Bit rate mode                  : Constant
    Bit rate                       : 1 509 Kbps
    Channel(s)                     : 2 channels
    Channel positions              : Front: L R
    Sampling rate                  : 48.0 KHz
    Frame rate                     : 93.750 fps (512 spf)
    Bit depth                      : 16 bits
    Compression mode               : Lossy
    Stream size                    : 271 MiB (12%)
    Language                       : English
    Default                        : Yes
    Forced                         : No

    Menu
    00:00:00.000                   : en:Chapter 01
    00:04:34.774                   : en:Chapter 02
    00:04:37.023                   : en:Chapter 03
    00:08:05.941                   : en:Chapter 04
    00:08:08.053                   : en:Chapter 05
    00:12:21.006                   : en:Chapter 06
    00:12:23.082                   : en:Chapter 07
    00:20:15.120                   : en:Chapter 08



    MediaInfo Videos

    General
    Unique ID                      : 218211738739002583921226981602088071258 (0xA42A0D5C06256569903B945B3226305A)
    Complete name                  : F:Torrent 22011.Foreigner.renta233 Videos - When It Comes To Love.mkv
    Format                         : Matroska
    Format version                 : Version 4 / Version 2
    File size                      : 382 MiB
    Duration                       : 4mn 6s
    Overall bit rate               : 13.0 Mbps
    Movie name                     : When It Comes To Love / renta23
    Encoded date                   : UTC 2016-05-04 14:40:03
    Writing application            : mkvmerge v8.3.0 ("Over the Horizon") 64bit
    Writing library                : libebml v1.3.1 + libmatroska v1.4.2

    Video
    ID                             : 1
    Format                         : AVC
    Format/Info                    : Advanced Video Codec
    Format profile                 : High@L4.1
    Format settings, CABAC         : Yes
    Format settings, ReFrames      : 4 frames
    Codec ID                       : V_MPEG4/ISO/AVC
    Duration                       : 4mn 5s
    Bit rate                       : 10 000 Kbps
    Width                          : 1 920 pixels
    Height                         : 1 080 pixels
    Display aspect ratio           : 16:9
    Frame rate mode                : Constant
    Frame rate                     : 23.976 (24000/1001) fps
    Color space                    : YUV
    Chroma subsampling             : 4:2:0
    Bit depth                      : 8 bits
    Scan type                      : Progressive
    Bits/(Pixel*Frame)             : 0.201
    Stream size                    : 293 MiB (77%)
    Title                          : When It Comes To Love
    Writing library                : x264 core 146 r2538 121396c
    Encoding settings              : cabac=1 / ref=4 / deblock=1:-1:-1 / analyse=0x3:0x133 / me=umh / subme=11 / psy=1 / psy_rd=1.07:0.23 / mixed_ref=1 / me_range=32 / chroma_me=1 / trellis=2 / 8x8dct=1 / cqm=0 / deadzone=21,11 / fast_pskip=0 / chroma_qp_offset=-3 / threads=12 / lookahead_threads=3 / sliced_threads=0 / nr=0 / decimate=1 / interlaced=0 / bluray_compat=0 / constrained_intra=0 / bframes=12 / b_pyramid=2 / b_adapt=2 / b_bias=0 / direct=3 / weightb=1 / open_gop=0 / weightp=2 / keyint=250 / keyint_min=23 / scenecut=40 / intra_refresh=0 / rc=2pass / mbtree=0 / bitrate=10000 / ratetol=1.0 / qcomp=0.60 / qpmin=0 / qpmax=69 / qpstep=4 / cplxblur=20.0 / qblur=0.5 / ip_ratio=1.40 / pb_ratio=1.30 / aq=2:1.00
    Language                       : English
    Default                        : Yes
    Forced                         : No

    Audio #1
    ID                             : 2
    Format                         : DTS
    Format/Info                    : Digital Theater Systems
    Mode                           : 16
    Format settings, Endianness    : Big
    Codec ID                       : A_DTS
    Duration                       : 4mn 6s
    Bit rate mode                  : Constant
    Bit rate                       : 1 509 Kbps
    Channel(s)                     : 2 channels
    Channel positions              : Front: L R
    Sampling rate                  : 48.0 KHz
    Frame rate                     : 93.750 fps (512 spf)
    Bit depth                      : 16 bits
    Compression mode               : Lossy
    Stream size                    : 44.3 MiB (12%)
    Title                          : DTS Stereo
    Language                       : English
    Default                        : Yes
    Forced                         : No

    Audio #2
    ID                             : 3
    Format                         : PCM
    Codec ID                       : A_PCM/INT/LIT
    Duration                       : 4mn 6s
    Bit rate mode                  : Constant
    Bit rate                       : 1 536 Kbps
    Channel(s)                     : 2 channels
    Sampling rate                  : 48.0 KHz
    Frame rate                     : 32.001 fps (1500 spf)
    Bit depth                      : 16 bits
    Stream size                    : 45.0 MiB (12%)
    Title                          : PCM Stereo
    Language                       : English
    Default                        : No
    Forced                         : No

    Menu
    00:00:00.000                   : en:Chapter 01
    00:04:02.659                   : en:Chapter 02



    [img]http://i78.fastpic.ru/big/2016/0504/70/4d984ac2360dcd01ce452fc00a273470.png[/img][img]http://i78.fastpic.ru/big/2016/0504/1d/cc5150de4c6a3132c0e22b88c5c4e71d.png[/img][img]http://i80.fastpic.ru/big/2016/0504/32/5af8aa5074b50b8115f8e9deebf80832.png[/img][img]http://i79.fastpic.ru/big/2016/0504/d5/214569d291b5e066b75a032b582f6ed5.png[/img]
    [img]http://i79.fastpic.ru/big/2016/0504/3b/4ef5c120f91b54b6ed59c1ccdd1db53b.png[/img][img]http://i77.fastpic.ru/big/2016/0504/88/d97b5cdb3ce3f2fa7153f91eff77b288.png[/img][img]http://i80.fastpic.ru/big/2016/0504/97/603aa99d7d9893b675f1c0613e63df97.png[/img][img]http://i77.fastpic.ru/big/2016/0504/25/15606edc63a207cc3379cc456649ac25.png[/img]
    Еще похожие »

    Как скачать?
    1. Качаем UTorrent версии 2.0 и выше отсюда
    2. После установки, жмем на ссылку Скачать торрент.
    3. Открываем его через utorrent.
    4. Ждем пока подключатся участники.
    5. Качаем.


    Комментарии о Foreigner - Rockin' At The Ryman 2010 + Bonus Tracks + Videos
    Добавлять комментарии могут только зарегистрированные пользователи

    Зарегистрироваться или Войти


    Ближайшее в кино
    • МУЛЬТ в кино. Выпуск №80. Время открытий дата выхода 15 сентября 2018МУЛЬТ в кино. Выпуск №80. Время открытий
      Дата выхода: 15 сентября 2018
    • 40783|Трудно быть Богом|20 сентября 2018|200|300Трудно быть Богом
      Дата выхода: 20 сентября 2018
    • 463858|Лондонские поля|20 сентября 2018|200|300Лондонские поля
      Дата выхода: 20 сентября 2018
    • 991225|Проклятие монахини|20 сентября 2018|200|300Проклятие монахини
      Дата выхода: 20 сентября 2018
    • 46671|Мой друг Иван Лапшин|20 сентября 2018|200|300Мой друг Иван Лапшин
      Дата выхода: 20 сентября 2018
    • 43332|Проверка на дорогах|20 сентября 2018|200|300Проверка на дорогах
      Дата выхода: 20 сентября 2018
    • 44339|Двадцать дней без войны|20 сентября 2018|200|300Двадцать дней без войны
      Дата выхода: 20 сентября 2018
    • 1068627|Простая просьба|20 сентября 2018|200|300Простая просьба
      Дата выхода: 20 сентября 2018
    • 987695|Бои без правил|20 сентября 2018|200|300Бои без правил
      Дата выхода: 20 сентября 2018
    • 1045478|Агент Джонни Инглиш 3.0|20 сентября 2018|200|300Агент Джонни Инглиш 3.0
      Дата выхода: 20 сентября 2018
    • 1047742|Доминика|20 сентября 2018|200|300Доминика
      Дата выхода: 20 сентября 2018
    • 1031263|Храброе сердце. Заговор в королевстве|20 сентября 2018|200|300Храброе сердце. Заговор в королевстве
      Дата выхода: 20 сентября 2018
    • 1025397|Закону тут не место|20 сентября 2018|200|300Закону тут не место
      Дата выхода: 20 сентября 2018
    • 1111982|Панды 3D|20 сентября 2018|200|300Панды 3D
      Дата выхода: 20 сентября 2018
    • 1115405|Мария до Каллас|20 сентября 2018|200|300Мария до Каллас
      Дата выхода: 20 сентября 2018
    Вверх