• Игры для PS4
  • Игры для PS3
  • Игры для XBOX360
  • Игры для PC
  • Игры для PS2
  • Игры для PSP
  • Для телефонов
  • Музыка
  • Книги / Журналы
  • Обои
  • Опрос
    Откуда Вы о нас узнали?
      0
    • От знакомых2,1,false,300,full
    • Из социальных сетей2,2,false,300,full
    • Из поисковых систем2,3,false,300,full
    • Другое2,4,false,300,full
    Статистика
    Всего онлайн -
    Гостей -
    Пользователей -
    Короли трекера
    Благодарности () Закрыть
    Информация о фильме
    Название: Во имя короля: История осады подземелья
    Оригинальное название: In the Name of the King: A Dungeon Siege Tale
    Год выхода: 2007
    Жанр: Фэнтези, боевик, драма, приключения
    Режиссер: Уве Болл
    В ролях: Джейсон Стэйтем, Лили Собески, Джон Рис-Дэвис, Рон Перлман, Мэттью Лиллард, Рэй Лиотта, Брайан Дж. Уайт, Клер Форлани, Кристанна Локен, Бёрт Рейнолдс, Майк Допуд, Уилл Сэндерсон, Таня Солнье, Габриель Роз, Теренс Келли, Колин Форд, Мишель Харрисон, Ева Пэдберг, Даррен Шахлави, Аарон Перл, Майкл Эклунд, Рон Селмур, Пол Ву, Стефен Парк, Марсель Мейлар, Дэниэл Бойло, Кристофер Розамунд

    О фильме: Фильм «Во имя короля: История осады подземелья» (In the Name of the King: A Dungeon Siege Tale) — фэнтезийно-приключенческий боевик Уве Болла, снятый по мотивам серии компьютерных игр «Dungeon Siege» и вышедший на экраны в 2007 году. На фоне войны, разразившейся в королевстве Эхб между коварным повелителем краг Галлианом (Рэй Лиотта) и правящим королем Конредом (Берт Рейнолдс), отважный фермер Дэймон (Джейсон Стэтхем) жаждет отомстить за смерть своего сына, убитого нечеловеческими воинами-чудовищами, а также найти свою похищенную жену Солану..




    Страна: Германия, Канада, США
    Студия: Boll Kino Beteiligungs GmbH & Co. KG, Brightlight Pictures Inc., Herold Productions
    Продолжительность: 02:07:04
    Перевод: Дублированный

    Файл
    Кодек: MPEG-4 AVC
    Качество: BDRip-AVC
    Видео: 3500 Кбит/с, 1024x576, 23.976 кадр/с
    Звук:
    Аудио #1: Русский (AC3, 6 ch, 448 Кбит/с) / Дублированный (Парадиз Видео)
    Аудио #2: Украинский (AC3, 6 ch, 448 Кбит/с) / Профессиональный многоголосый (1+1)
    Аудио #3: Английский (AC3, 6 ch, 448 Кбит/с)
    Субтитры: Русские, английские
    MediaInfo:
    Общее
    Уникальный идентификатор                 : 233179201430715954828389248004071664802 (0xAF6CAE3EB5A57361A56A5FE8F6E8ACA2)
    Полное имя                               : D:Мои РипыIn.The.Name.Of.The.King.A.Dungeon.Siege.Tale.2007.BDRip.AVC.MediaClub.mkv
    Формат                                   : Matroska
    Версия формата                           : Version 4 / Version 2
    Размер файла                             : 4,30 Гбайт
    Продолжительность                        : 2 ч. 7 м.
    Общий поток                              : 4846 Кбит/сек
    Название фильма                          : = MediaClub = rip by krakatuq
    Дата кодирования                         : UTC 2014-10-15 14:46:25
    Программа кодирования                    : mkvmerge v6.6.0 (`The Edge Of The In Between`) built on Dec  1 2013 17:55:00
    Библиотека кодирования                   : libebml v1.3.0 + libmatroska v1.4.1

    Видео
    Идентификатор                            : 1
    Формат                                   : AVC
    Формат/Информация                        : Advanced Video Codec
    Профиль формата                          : High@L4.1
    Параметр CABAC формата                   : Да
    Параметр ReFrames формата                : 9 кадров
    Идентификатор кодека                     : V_MPEG4/ISO/AVC
    Продолжительность                        : 2 ч. 7 м.
    Битрейт                                  : 3500 Кбит/сек
    Ширина                                   : 1024 пикселя
    Высота                                   : 576 пикселей
    Соотношение сторон                       : 16:9
    Режим частоты кадров                     : Постоянный
    Частота кадров                           : 23,976 кадра/сек
    Цветовое пространство                    : YUV
    Субдискретизация насыщенности            : 4:2:0
    Битовая глубина                          : 8 бит
    Тип развёртки                            : Прогрессивная
    Бит/(Пиксели*Кадры)                      : 0.247
    Размер потока                            : 3,02 Гбайт (70%)
    Заголовок                                : In.The.Name.Of.The.King.A.Dungeon.Siege.Tale.2007.BDRip.AVC.MediaClub
    Библиотека кодирования                   : x264 core 142 r2409+42 04be48a tMod [8-bit@4:2:0 X86]
    Настройки программы                      : cabac=1 / ref=9 / deblock=1:-2:-2 / analyse=0x3:0x133 / me=umh / subme=11 / psy=1 / fade_compensate=0.00 / psy_rd=1.00:0.15 / mixed_ref=1 / me_range=32 / chroma_me=1 / trellis=2 / 8x8dct=1 / cqm=0 / deadzone=21,11 / fast_pskip=0 / chroma_qp_offset=-3 / threads=3 / lookahead_threads=1 / sliced_threads=0 / nr=0 / decimate=0 / interlaced=0 / bluray_compat=0 / constrained_intra=0 / fgo=0 / bframes=8 / b_pyramid=2 / b_adapt=2 / b_bias=0 / direct=3 / weightb=1 / open_gop=0 / weightp=2 / keyint=240 / keyint_min=23 / scenecut=40 / intra_refresh=0 / rc=2pass / mbtree=0 / bitrate=3500 / ratetol=1.0 / qcomp=0.60 / qpmin=0:0:0 / qpmax=69:69:69 / qpstep=4 / cplxblur=20.0 / qblur=0.5 / ip_ratio=1.40 / pb_ratio=1.30 / aq=1:1.00 / aq-sensitivity=10.00 / aq-factor=1.00:1.00:1.00 / aq2=0 / aq3=0
    Язык                                     : English
    Default                                  : Да
    Forced                                   : Нет

    Аудио #1
    Идентификатор                            : 2
    Формат                                   : AC-3
    Формат/Информация                        : Audio Coding 3
    Расширение режима                        : CM (complete main)
    Параметр Endianness формата              : Big
    Идентификатор кодека                     : A_AC3
    Продолжительность                        : 2 ч. 7 м.
    Вид битрейта                             : Постоянный
    Битрейт                                  : 448 Кбит/сек
    Каналы                                   : 6 каналов
    Расположение каналов                     : Front: L C R, Side: L R, LFE
    Частота                                  : 48,0 КГц
    Битовая глубина                          : 16 бит
    Метод сжатия                             : С потерями
    Размер потока                            : 407 Мбайт (9%)
    Заголовок                                : TRACK_01_DUB_RUS
    Язык                                     : Russian
    Default                                  : Да
    Forced                                   : Да

    Аудио #2
    Идентификатор                            : 3
    Формат                                   : AC-3
    Формат/Информация                        : Audio Coding 3
    Расширение режима                        : CM (complete main)
    Параметр Endianness формата              : Big
    Идентификатор кодека                     : A_AC3
    Продолжительность                        : 2 ч. 7 м.
    Вид битрейта                             : Постоянный
    Битрейт                                  : 448 Кбит/сек
    Каналы                                   : 6 каналов
    Расположение каналов                     : Front: L C R, Side: L R, LFE
    Частота                                  : 48,0 КГц
    Битовая глубина                          : 16 бит
    Метод сжатия                             : С потерями
    Размер потока                            : 407 Мбайт (9%)
    Заголовок                                : TRACK_02_MVO_UKR
    Язык                                     : Ukrainian
    Default                                  : Нет
    Forced                                   : Нет

    Аудио #3
    Идентификатор                            : 4
    Формат                                   : AC-3
    Формат/Информация                        : Audio Coding 3
    Расширение режима                        : CM (complete main)
    Параметр Endianness формата              : Big
    Идентификатор кодека                     : A_AC3
    Продолжительность                        : 2 ч. 7 м.
    Вид битрейта                             : Постоянный
    Битрейт                                  : 448 Кбит/сек
    Каналы                                   : 6 каналов
    Расположение каналов                     : Front: L C R, Side: L R, LFE
    Частота                                  : 48,0 КГц
    Битовая глубина                          : 16 бит
    Метод сжатия                             : С потерями
    Размер потока                            : 407 Мбайт (9%)
    Заголовок                                : TRACK_03_ORIGINAL_ENG
    Язык                                     : English
    Default                                  : Нет
    Forced                                   : Нет

    Текст #1
    Идентификатор                            : 5
    Формат                                   : UTF-8
    Идентификатор кодека                     : S_TEXT/UTF8
    Идентификатор кодека/Информация          : UTF-8 Plain Text
    Заголовок                                : TEXT_01_SUB_RUS
    Язык                                     : Russian
    Default                                  : Нет
    Forced                                   : Нет

    Текст #2
    Идентификатор                            : 6
    Формат                                   : UTF-8
    Идентификатор кодека                     : S_TEXT/UTF8
    Идентификатор кодека/Информация          : UTF-8 Plain Text
    Заголовок                                : TEXT_02_SUB_ENG
    Язык                                     : English
    Default                                  : Нет
    Forced                                   : Нет

    Меню
    00:00:00.000                             : en:00:00:00.000
    00:16:18.644                             : en:00:16:18.644
    00:26:31.465                             : en:00:26:31.465
    00:37:11.729                             : en:00:37:11.729
    00:49:55.534                             : en:00:49:55.534
    00:59:26.855                             : en:00:59:26.855
    01:07:17.617                             : en:01:07:17.617
    01:17:22.304                             : en:01:17:22.304
    01:26:53.750                             : en:01:26:53.750
    01:37:10.783                             : en:01:37:10.783
    01:47:25.522                             : en:01:47:25.522
    01:59:56.106                             : en:01:59:56.106

    x264 log
    x264 [info]: frame I:1858  Avg QP:18.15  size:104939
    x264 [info]: frame P:48531 Avg QP:20.76  size: 32299
    x264 [info]: frame B:132417 Avg QP:22.46  size: 11881Свернуть



                        


    Скриншоты
    [screen]http://s016.radikal.ru/i337/1410/91/3f6d808fae24.png[/screen][screen]http://s52.radikal.ru/i135/1410/d9/e21d1d7c6ec7.png[/screen][screen]http://s019.radikal.ru/i625/1410/1b/ff381ae7a006.png[/screen][screen]http://s010.radikal.ru/i314/1410/92/ab73a1822eff.png[/screen][screen]http://s011.radikal.ru/i315/1410/48/861c64a62944.png[/screen][screen]http://s017.radikal.ru/i425/1410/5d/9f2a574d7588.png[/screen]Свернуть
    Похожие раздачи Искать похожие
    Инструкция по скачиванию
     1  Качаем uTorrent версии 2.0 и выше
     2  После установки, жмем выше под постером на ссылку Скачать [MediaGet] или Скачать .torrent
     3  Открываем скачанный файл через соответствующий клиент: MediaGet или uTorrent
     4  Ждем пока подключатся участники
     5  Качаем
    Комментарии о  Во имя короля: История осады подземелья / In the Name of the King: A Dungeon Siege Tale | BDRip-AVC 
    Ближайшее в кино
    Вверх