• Игры для PS4
  • Игры для PS3
  • Игры для XBOX360
  • Игры для PC
  • Игры для PS2
  • Игры для PSP
  • Для телефонов
  • Музыка
  • Книги/Журналы
  • Обои
  •  
    Опрос
    Удобен ли сайт в использовании?
      0
    • Очень удобен, все понятно1,1,false,300,full
    • Удобен1,2,false,300,full
    • Средне1,3,false,300,full
    • Неудобен, трудно ориентироваться1,4,false,300,full
    • Совсем неудобен1,5,false,300,full
    Статистика
    Загрузка...
    Мотылек / Papillon | BDRemux 1080p
    Статус  Проверено
    В закладки
    Модератор: Max

    Мотылек / Papillon | BDRemux 1080p [Фильмы 1973] скачать торрентом/torrent бесплатно

    Год выхода
    Категории
    Язык
    Закачал
    Max | 01 декабря 2016 в 18ч 25м 26с
    Раздел
    Отзывов
    0
    Раздают: 1 Качают: 0 Скачали: 17 Размер: 29.04 GB
    Инфо о раздаче | Благодарности |
    0/5
    0
    0 5 0
    Поддержи нас — расскажи друзьям!
    Orbitum
    Новый интернет-браузер Быстрее загружает сайты Экономит интернет—трафик Меняет оформление страницы ВК Блокирует всю рекламу на сайтах Загружает торренты как

    µTorrent

    клиент
    Объеденяет все твои чаты из соц. сетей в один Проигрывает твою музыку не заходя во ВКонтакте
    Скачать и многое другое... Подробности на сайте производителя
    Информация о фильме
    Название: Мотылек
    Оригинальное название: Papillon
    Год выхода: 1973
    Жанр: драма, криминал
    Режиссер: Франклин Дж. Шаффнер
    В ролях: Стив МакКуин, Дастин Хоффман, Виктор Джори, Дон Гордон, Энтони Зерби, Роберт Димен, Вудроу Парфри, Билл Муми, Джордж Кулурис, Рэтна Ассан, Уильям Смитерс, Вэл Эйвери, Грегори Сьерра

    О фильме:
    За убийство, которое он не совершал, взломщик сейфов Анри Шарьер приговорен к пожизненному заключению и отправлен на каторгу. Прозванный «Мотыльком» из-за того, что на его груди вытатуирован этот символ свободы, Анри совершает несколько попыток побега. В наказание власти надолго сажают его в карцер, а затем отправляют во Французскую Гвиану на остров Дьявола, со всех сторон окруженный океаном.


    Страна: Франция, США
    Продолжительность: 2:30:47
    Перевод: Профессиональный многоголосый, профессиональный двухголосый, авторский одноголосый

    Файл
    Кодек: MPEG-4 AVC
    Качество: BDRemux 1080p
    Видео: 19965 Кбит/с, 1920x1080, 23.976 кадр/с
    Звук:
    Аудио 1: Dolby Digital Audio Russian 2.0 / 48 kHz / 192 kbps [DVD Магия]
    Аудио 2: Dolby Digital Audio Russian 2.0 / 48 kHz / 192 kbps [ОРТ]
    Аудио 3: Dolby Digital Audio Russian 2.0 / 48 kHz / 192 kbps [двухголосый]
    Аудио 4: DTS Audio Russian 5.1 / 48 kHz / 1510 kbps [Гланц и Королева]
    Аудио 5: DTS Audio Russian 5.1 / 48 kHz / 1510 kbps [Гаврилов]
    Аудио 6: DTS-HD Master Audio English 5.1 / 48 kHz / 4007 kbps / 24-bit (DTS Core: 5.1 / 48 kHz / 1509 kbps / 24-bit)
    Субтитры: русские, английские

    M/I
    General
    Unique ID : 176277426335445434000296592338989616924 (0x849DCC21BE80F77398211C0190D40F1C)
    Complete name : J:Papillon.1973.1080p.Bluray.AVC.Remux.mkv
    Format : Matroska
    File size : 29.0 GiB
    Duration : 2h 30mn
    Overall bit rate : 27.6 Mbps
    Movie name : Papillon.1973.1080p.Bluray.AVC.Remux
    Encoded date : UTC 2011-06-03 15:07:19
    Writing application : mkvmerge v4.8.0 ("I Got The...") сборка от May 24 2011 03:12:58
    Writing library : libebml v1.2.0 + libmatroska v1.1.0
    Video
    ID : 1
    Format : AVC
    Format/Info : Advanced Video Codec
    Format profile : High@L4.1
    Format settings, CABAC : Yes
    Format settings, ReFrames : 2 frames
    Codec ID : V_MPEG4/ISO/AVC
    Duration : 2h 30mn
    Bit rate mode : Variable
    Bit rate : 21.2 Mbps
    Width : 1 920 pixels
    Height : 1 080 pixels
    Display aspect ratio : 16:9
    Frame rate : 23.976 fps
    Color space : YUV
    Chroma subsampling : 4:2:0
    Bit depth : 8 bits
    Scan type : Progressive
    Bits/(Pixel*Frame) : 0.426
    Stream size : 22.3 GiB (77%)
    Title : uralmix
    Audio #1
    ID : 2
    Format : AC-3
    Format/Info : Audio Coding 3
    Mode extension : CM (complete main)
    Codec ID : A_AC3
    Duration : 2h 30mn
    Bit rate mode : Constant
    Bit rate : 192 Kbps
    Channel(s) : 2 channels
    Channel positions : Front: L R
    Sampling rate : 48.0 KHz
    Bit depth : 16 bits
    Compression mode : Lossy
    Stream size : 207 MiB (1%)
    Title : DVD Магия
    Language : Russian
    Audio #2
    ID : 3
    Format : AC-3
    Format/Info : Audio Coding 3
    Mode extension : CM (complete main)
    Codec ID : A_AC3
    Duration : 2h 30mn
    Bit rate mode : Constant
    Bit rate : 192 Kbps
    Channel(s) : 2 channels
    Channel positions : Front: L R
    Sampling rate : 48.0 KHz
    Bit depth : 16 bits
    Compression mode : Lossy
    Stream size : 207 MiB (1%)
    Title : ОРТ
    Language : Russian
    Audio #3
    ID : 4
    Format : AC-3
    Format/Info : Audio Coding 3
    Mode extension : CM (complete main)
    Codec ID : A_AC3
    Duration : 2h 30mn
    Bit rate mode : Constant
    Bit rate : 192 Kbps
    Channel(s) : 2 channels
    Channel positions : Front: L R
    Sampling rate : 48.0 KHz
    Bit depth : 16 bits
    Compression mode : Lossy
    Stream size : 207 MiB (1%)
    Title : двухголосый
    Language : Russian
    Audio #4
    ID : 5
    Format : DTS
    Format/Info : Digital Theater Systems
    Codec ID : A_DTS
    Duration : 2h 30mn
    Bit rate mode : Constant
    Bit rate : 1 510 Kbps
    Channel(s) : 6 channels
    Channel positions : Front: L C R, Side: L R, LFE
    Sampling rate : 48.0 KHz
    Bit depth : 24 bits
    Compression mode : Lossy
    Stream size : 1.59 GiB (5%)
    Title : Петр Гланц и Инна Королева
    Language : Russian
    Audio #5
    ID : 6
    Format : DTS
    Format/Info : Digital Theater Systems
    Codec ID : A_DTS
    Duration : 2h 30mn
    Bit rate mode : Constant
    Bit rate : 1 510 Kbps
    Channel(s) : 6 channels
    Channel positions : Front: L C R, Side: L R, LFE
    Sampling rate : 48.0 KHz
    Bit depth : 24 bits
    Compression mode : Lossy
    Stream size : 1.59 GiB (5%)
    Title : авторский - Андрей Гаврилов
    Language : Russian
    Audio #6
    ID : 7
    Format : DTS
    Format/Info : Digital Theater Systems
    Format profile : MA / Core
    Codec ID : A_DTS
    Duration : 2h 30mn
    Bit rate mode : Variable
    Bit rate : 2 263 Kbps / 1 510 Kbps
    Channel(s) : 6 channels
    Channel positions : Front: L C R, Side: L R, LFE
    Sampling rate : 48.0 KHz
    Bit depth : 24 bits
    Compression mode : Lossless / Lossy
    Language : English
    Text #1
    ID : 8
    Format : UTF-8
    Codec ID : S_TEXT/UTF8
    Codec ID/Info : UTF-8 Plain Text
    Language : Russian
    Text #2
    ID : 9
    Format : UTF-8
    Codec ID : S_TEXT/UTF8
    Codec ID/Info : UTF-8 Plain Text
    Language : English
    Menu
    00:00:00.000 : en:00:00:00.000
    00:03:58.321 : en:00:03:58.321
    00:08:21.084 : en:00:08:21.084
    00:10:31.381 : en:00:10:31.381
    00:15:24.006 : en:00:15:24.006
    00:16:58.643 : en:00:16:58.643
    00:22:14.542 : en:00:22:14.542
    00:25:40.414 : en:00:25:40.414
    00:30:16.815 : en:00:30:16.815
    00:35:01.933 : en:00:35:01.933
    00:40:35.850 : en:00:40:35.850
    00:43:53.005 : en:00:43:53.005
    00:45:50.456 : en:00:45:50.456
    00:51:21.954 : en:00:51:21.954
    00:56:38.562 : en:00:56:38.562
    00:58:26.378 : en:00:58:26.378
    01:07:21.955 : en:01:07:21.955
    01:09:26.662 : en:01:09:26.662
    01:12:26.759 : en:01:12:26.759
    01:17:45.911 : en:01:17:45.911
    01:21:02.691 : en:01:21:02.691
    01:24:08.335 : en:01:24:08.335
    01:26:05.535 : en:01:26:05.535
    01:32:59.991 : en:01:32:59.991
    01:35:57.418 : en:01:35:57.418
    01:37:55.953 : en:01:37:55.953
    01:42:36.359 : en:01:42:36.359
    01:44:18.627 : en:01:44:18.627
    01:47:37.201 : en:01:47:37.201
    01:51:02.239 : en:01:51:02.239
    01:54:34.743 : en:01:54:34.743
    02:02:55.910 : en:02:02:55.910
    02:07:06.828 : en:02:07:06.828
    02:10:31.991 : en:02:10:31.991
    02:14:08.624 : en:02:14:08.624
    02:16:37.147 : en:02:16:37.147
    02:20:06.523 : en:02:20:06.523
    02:24:07.472 : en:02:24:07.472
    02:27:12.991 : en:02:27:12.991


    Скриншоты
    [img]http://i4.imageban.ru/out/2016/12/01/93b4093c5ebee35bca839896ac96592e.png[/img][img]http://i5.imageban.ru/out/2016/12/01/f8c6a4717a1b06d44c6d1029954416d5.png[/img][img]http://i3.imageban.ru/out/2016/12/01/c09d6f49536a55534799d65304af5b76.png[/img][img]http://i5.imageban.ru/out/2016/12/01/02e1a7213f75d7da71c0f7419b0d8a1f.png[/img]
    Еще похожие »

    Как скачать?
    1. Качаем UTorrent версии 2.0 и выше отсюда
    2. После установки, жмем на ссылку Скачать торрент.
    3. Открываем его через utorrent.
    4. Ждем пока подключатся участники.
    5. Качаем.


    Комментарии о Мотылек / Papillon | BDRemux 1080p
    Добавлять комментарии могут только зарегистрированные пользователи

    Зарегистрироваться или Войти


    Ближайшее в кино
    • Аллилуйя! дата выхода 13 ноября 2018Аллилуйя!
      Дата выхода: 13 ноября 2018
    • 1199695|Coldplay: A Head Full of Dreams|14 ноября 2018|200|300Coldplay: A Head Full of Dreams
      Дата выхода: 14 ноября 2018
    • 843479|Фантастические твари: Преступления Грин-де-Вальда|15 ноября 2018|200|300Фантастические твари: Преступления Грин-де-Вальда
      Дата выхода: 15 ноября 2018
    • 1070264|Догмэн|15 ноября 2018|200|300Догмэн
      Дата выхода: 15 ноября 2018
    • 1068448|Оцепеневшие от страха|15 ноября 2018|200|300Оцепеневшие от страха
      Дата выхода: 15 ноября 2018
    • 1065878|Холодная война|15 ноября 2018|200|300Холодная война
      Дата выхода: 15 ноября 2018
    • 933787|Не чужие|15 ноября 2018|200|300Не чужие
      Дата выхода: 15 ноября 2018
    • 1045040|Облепиховое лето|15 ноября 2018|200|300Облепиховое лето
      Дата выхода: 15 ноября 2018
    • 1085625|Соната|15 ноября 2018|200|300Соната
      Дата выхода: 15 ноября 2018
    • 1174349|Безумие Георга III|20 ноября 2018|200|300Безумие Георга III
      Дата выхода: 20 ноября 2018
    • 7226|Догвилль|22 ноября 2018|200|300Догвилль
      Дата выхода: 22 ноября 2018
    • 1009784|Апгрейд|22 ноября 2018|200|300Апгрейд
      Дата выхода: 22 ноября 2018
    • 988782|Ральф против интернета|22 ноября 2018|200|300Ральф против интернета
      Дата выхода: 22 ноября 2018
    • 965901|Вдовы|22 ноября 2018|200|300Вдовы
      Дата выхода: 22 ноября 2018
    • 1011685|Нация убийц|22 ноября 2018|200|300Нация убийц
      Дата выхода: 22 ноября 2018
    Вверх