• Игры для PS3
  • Игры для XBOX360
  • Игры для PC
  • Игры для PS2
  • Игры для PSP
  • Для телефонов
  • Музыка
  • Книги/Журналы
  • Обои
  •  
    Опрос
    Откуда Вы о нас узнали?
      0
    • От знакомых2,1,false,300,full
    • Из социальных сетей2,2,false,300,full
    • Из поисковых систем2,3,false,300,full
    • Другое2,4,false,300,full
    Статистика
    Загрузка...
    Тупик / Dead End | WEBRip 720p
    Статус  Проверено
    В закладки
    Модератор: Max

    Тупик / Dead End | WEBRip 720p [Фильмы 2003] скачать торрентом/torrent бесплатно

    Год выхода
    Язык
    Закачал
    Max | 07 января 2017 в 23ч 23м 06с
    Раздел
    Отзывов
    0
    Раздают: 2704 Качают: 818 Скачали: 6250 Размер: 2.36 GB
    Файлы (1) | Благодарности | Хэш код |
    0/5
    0
    Поддержи нас — расскажи друзьям!
    Orbitum
    Новый интернет-браузер Быстрее загружает сайты Экономит интернет—трафик Меняет оформление страницы ВК Блокирует всю рекламу на сайтах Загружает торренты как

    µTorrent

    клиент
    Объеденяет все твои чаты из соц. сетей в один Проигрывает твою музыку не заходя во ВКонтакте
    Скачать и многое другое... Подробности на сайте производителя
    Оригинальное название: Dead End

    Год выхода: 2003

    Страна: Франция
    Студия: Sagittaire Films, Captain Movies

    Продолжительность: 01:23:19
    Жанр: ужасы, триллер, комедия, детектив

    Режиссер: Жан-Баптист Андреа, Фабрис Канепа
    В ролях: Александра Холден, Рэй Уайз, Лин Шэй, Мик Кэйн, Эмбер Смит, Билли Эшер, Карен С. Греган, Шэрон Мэдден, Стив Валентайн, Джимми Ф. Скэггз, ...

    Перевод: Профессиональный (многоголосный, закадровый) по заказу  Екатеринбург Арт

    О фильме: Все последние 20 лет Фрэнк отвозил семью на Рождество к своей теще и всегда ездил одной и той же дорогой. На это раз он решил сократить путь, проехав через лес. И совершенно напрасно…
    По лесу бродит таинственная женщина в белом, сеющая смерть. Ужасный черный автомобиль с невидимым шофером увозит жертвы в ночную тьму. На каждом дорожном знаке указан пункт назначения, которого невозможно достичь. Те же, кому посчастливится выжить, уже никогда и ничего не смогут рассказать о том, что произошло с ними в эту Рождественскую ночь…



    Кодек: MPEG4/ISO/AVC
    Качество: WEBRip 720p
    Видео: 1280x720, 2950 kbps, 29,970 fps
    Аудио #1: AC-3, 6 ch, 384 kbps (Rus) - MVO Екатеринбург Арт
    Аудио #2: AC-3, 6 ch, 640 kbps (Eng)
    Субтитры: Английские

    MediaInfo
    Общее
    Уникальный идентификатор : 185755337523011690704667211509538427678 (0x8BBF2D3B541F3780917AA3C3B957131E)
    Полное имя : Тупик (Dead End) 2003 WEBRip 720p.mkv
    Формат : Matroska
    Версия формата : Version 2
    Размер файла : 2,36 Гбайт
    Продолжительность : 1 ч. 23 м.
    Режим общего битрейта : Переменный
    Общий поток : 4054 Кбит/сек
    Название фильма : Dead.End.2003.720p.WEBRip.x264.DD5.1-FGT
    Дата кодирования : UTC 2017-01-07 15:42:35
    Программа кодирования : mkvmerge v4.0.0 ("The Stars were mine") сборка от Jun 6 2010 16:18:42
    Библиотека кодирования : libebml v1.0.0 + libmatroska v1.0.0
    Attachment : Yes / Yes / Yes / Yes

    Видео
    Идентификатор : 1
    Формат : AVC
    Формат/Информация : Advanced Video Codec
    Профиль формата : High@L3.2
    Параметр CABAC формата : Да
    Параметр ReFrames формата : 4 кадра
    Параметр GOP формата : M=3, N=60
    Идентификатор кодека : V_MPEG4/ISO/AVC
    Продолжительность : 1 ч. 23 м.
    Вид битрейта : Переменный
    Битрейт : 2950 Кбит/сек
    Максимальный битрейт : 6000 Кбит/сек
    Ширина : 1280 пикселей
    Высота : 720 пикселей
    Соотношение сторон : 16:9
    Режим частоты кадров : Постоянный
    Частота кадров : 29,970 кадров/сек
    Стандарт вещания : NTSC
    Цветовое пространство : YUV
    Субдискретизация насыщенности : 4:2:0
    Битовая глубина : 8 бит
    Тип развёртки : Прогрессивная
    Бит/(Пиксели*Кадры) : 0.107
    Размер потока : 1,72 Гбайт (73%)
    Язык : English
    Default : Нет
    Forced : Нет
    Основные цвета : BT.709
    Характеристики трансфера : BT.709
    Коэффициенты матрицы : BT.709

    Аудио #1
    Идентификатор : 2
    Формат : AC-3
    Формат/Информация : Audio Coding 3
    Расширение режима : CM (complete main)
    Параметр Endianness формата : Big
    Идентификатор кодека : A_AC3
    Продолжительность : 1 ч. 23 м.
    Вид битрейта : Постоянный
    Битрейт : 384 Кбит/сек
    Каналы : 6 каналов
    Расположение каналов : Front: L C R, Side: L R, LFE
    Частота : 48,0 КГц
    Битовая глубина : 16 бит
    Метод сжатия : С потерями
    Размер потока : 229 Мбайт (9%)
    Заголовок : MVO Екатеринбург Арт
    Язык : Russian
    Default : Нет
    Forced : Нет

    Аудио #2
    Идентификатор : 3
    Формат : AC-3
    Формат/Информация : Audio Coding 3
    Расширение режима : CM (complete main)
    Параметр Endianness формата : Big
    Идентификатор кодека : A_AC3
    Продолжительность : 1 ч. 23 м.
    Вид битрейта : Постоянный
    Битрейт : 640 Кбит/сек
    Каналы : 6 каналов
    Расположение каналов : Front: L C R, Side: L R, LFE
    Частота : 48,0 КГц
    Битовая глубина : 16 бит
    Метод сжатия : С потерями
    Размер потока : 381 Мбайт (16%)
    Язык : English
    Default : Нет
    Forced : Нет

    Текст
    Идентификатор : 4
    Формат : UTF-8
    Идентификатор кодека : S_TEXT/UTF8
    Идентификатор кодека/Информация : UTF-8 Plain Text
    Язык : English
    Default : Нет
    Forced : Нет


    [img]http://s019.radikal.ru/i637/1701/df/f3630a600f51.png[/img][img]http://s011.radikal.ru/i317/1701/8c/19dd02226e91.png[/img][img]http://s019.radikal.ru/i622/1701/a5/0b738f8f76fc.png[/img][img]http://s019.radikal.ru/i604/1701/bb/4a5799cc1bf1.png[/img]
    [img]http://s02.radikal.ru/i175/1701/a8/13a77df24516.png[/img][img]http://s019.radikal.ru/i635/1701/c1/50fd2e680953.png[/img][img]http://s018.radikal.ru/i524/1701/cf/e75dabad1cac.png[/img][img]http://s019.radikal.ru/i617/1701/33/858677f428a1.png[/img]
    Еще похожие »

    Как скачать?
    1. Качаем UTorrent версии 2.0 и выше отсюда
    2. После установки, жмем на ссылку Скачать торрент.
    3. Открываем его через utorrent.
    4. Ждем пока подключатся участники.
    5. Качаем.


    Комментарии о Тупик / Dead End | WEBRip 720p
    Добавлять комментарии могут только зарегистрированные пользователи

    Зарегистрироваться или Войти


    Ближайшее в кино
    • Пианистка дата выхода 18 января 2018Пианистка
      Дата выхода: 18 января 2018
    • Форма воды дата выхода 18 января 2018Форма воды
      Дата выхода: 18 января 2018
    • Астрал 4: Последний ключ дата выхода 18 января 2018Астрал 4: Последний ключ
      Дата выхода: 18 января 2018
    • Темные времена дата выхода 18 января 2018Темные времена
      Дата выхода: 18 января 2018
    • Скиф дата выхода 18 января 2018Скиф
      Дата выхода: 18 января 2018
    • Приключения Паддингтона 2 дата выхода 18 января 2018Приключения Паддингтона 2
      Дата выхода: 18 января 2018
    • Карп отмороженный дата выхода 18 января 2018Карп отмороженный
      Дата выхода: 18 января 2018
    • Мешок без дна дата выхода 18 января 2018Мешок без дна
      Дата выхода: 18 января 2018
    • МУЛЬТ в кино. Выпуск №67. Зимний карнавал дата выхода 20 января 2018МУЛЬТ в кино. Выпуск №67. Зимний карнавал
      Дата выхода: 20 января 2018
    • Смерть Сталина дата выхода 25 января 2018Смерть Сталина
      Дата выхода: 25 января 2018
    • Zомбоящик дата выхода 25 января 2018Zомбоящик
      Дата выхода: 25 января 2018
    • Хэппи-энд дата выхода 25 января 2018Хэппи-энд
      Дата выхода: 25 января 2018
    • Побег из Рио дата выхода 25 января 2018Побег из Рио
      Дата выхода: 25 января 2018
    • Девушка в тумане дата выхода 25 января 2018Девушка в тумане
      Дата выхода: 25 января 2018
    • Выставка Hokusai Британского музея дата выхода 25 января 2018Выставка Hokusai Британского музея
      Дата выхода: 25 января 2018
    Вверх