• Игры для PS4
  • Игры для PS3
  • Игры для XBOX360
  • Игры для PC
  • Игры для PS2
  • Игры для PSP
  • Для телефонов
  • Музыка
  • Книги / Журналы
  • Обои
  • Опрос
    Откуда Вы о нас узнали?
      0
    • От знакомых2,1,false,300,full
    • Из социальных сетей2,2,false,300,full
    • Из поисковых систем2,3,false,300,full
    • Другое2,4,false,300,full
    Статистика
    Всего онлайн -
    Гостей -
    Пользователей -
    Короли трекера
    
    Благодарности () Закрыть
    Производство: США
    Жанр:  Криминал, Мистика
    Продолжительность: 3 серии по ~01:27:00
    Перевод: Профессиональный (многоголосый, закадровый) ТВ-3
    Субтитры: Отсутствуют
    Режиссер: Грег Р. Бэксли, Майкл В. Уоткинс
    Актеры: Питер Крауз, Джулиана Маргулес, Питер Якобсон и др.

    Описание:
    Что если весь мир устроен не так просто, как нам кажется? Что если самые простые бытовые предметы обладают свойствами, которые не поддаются объяснению? И что если самый близкий Вам человек оказался в плену этих мистических событий?
    Предлагаем вам присоединиться к детективу Джо Миллеру и другим героям новейшего телефильма «Пропавшая комната» и узнать всю правду о том, что случилось в десятом номере мотеля «Саншайн» и как это изменило судьбу всего мира.



    Качество видео: WEB-DLRip-AVC
    Видео: AVC, 960x538 (16:9), 23.976 fps, 1 929 Kbps (0.156 bit/pixel)
    Аудио: AC-3, 48.0 KHz, 6 ch, 448 Kbps, CBR (Russian)

    MediaInfo
    Формат                                   : Matroska
    Версия формата                           : Version 2
    Размер файла                             : 1,46 Гбайт
    Продолжительность                        : 1 ч. 27 м.
    Общий поток                              : 2378 Кбит/сек
    Дата кодирования                         : UTC 2017-01-07 20:05:39
    Программа кодирования                    : mkvmerge v5.3.0 ("I could have danced") built on Feb  9 2012 10:38:07
    Библиотека кодирования                   : libebml v1.2.3 + libmatroska v1.3.0
    Attachments                              : poster (16).jpg

    Видео
    Идентификатор                            : 1
    Формат                                   : AVC
    Формат/Информация                        : Advanced Video Codec
    Профиль формата                          : High@L4.1
    Параметр CABAC формата                   : Да
    Параметр ReFrames формата                : 9 кадров
    Идентификатор кодека                     : V_MPEG4/ISO/AVC
    Продолжительность                        : 1 ч. 27 м.
    Битрейт                                  : 1929 Кбит/сек
    Ширина                                   : 960 пикселей
    Высота                                   : 538 пикселей
    Соотношение сторон                       : 16:9
    Режим частоты кадров                     : Постоянный
    Частота кадров                           : 23,976 (24000/1001) кадра/сек
    Цветовое пространство                    : YUV
    Субдискретизация насыщенности            : 4:2:0
    Битовая глубина                          : 8 бит
    Тип развёртки                            : Прогрессивная
    Бит/(Пиксели*Кадры)                      : 0.156
    Размер потока                            : 1,15 Гбайт (79%)
    Библиотека кодирования                   : x264 core 146 r2538 121396c
    Настройки программы                      : cabac=1 / ref=9 / deblock=1:-3:-3 / analyse=0x3:0x133 / me=umh / subme=10 / psy=1 / psy_rd=1.00:0.15 / mixed_ref=1 / me_range=32 / chroma_me=1 / trellis=2 / 8x8dct=1 / cqm=0 / deadzone=21,11 / fast_pskip=0 / chroma_qp_offset=-3 / threads=12 / lookahead_threads=2 / sliced_threads=0 / nr=0 / decimate=1 / interlaced=0 / bluray_compat=0 / constrained_intra=0 / bframes=7 / b_pyramid=2 / b_adapt=2 / b_bias=0 / direct=3 / weightb=1 / open_gop=0 / weightp=2 / keyint=240 / keyint_min=23 / scenecut=40 / intra_refresh=0 / rc=2pass / mbtree=0 / bitrate=1929 / ratetol=1.0 / qcomp=0.60 / qpmin=0 / qpmax=69 / qpstep=4 / cplxblur=20.0 / qblur=0.5 / ip_ratio=1.40 / pb_ratio=1.30 / aq=2:0.70
    Default                                  : Да
    Forced                                   : Нет

    Аудио
    Идентификатор                            : 2
    Формат                                   : AC-3
    Формат/Информация                        : Audio Coding 3
    Расширение режима                        : CM (complete main)
    Параметр Endianness формата              : Big
    Идентификатор кодека                     : A_AC3
    Продолжительность                        : 1 ч. 27 м.
    Вид битрейта                             : Постоянный
    Битрейт                                  : 448 Кбит/сек
    Каналы                                   : 6 каналов
    Расположение каналов                     : Front: L C R, Side: L R, LFE
    Частота                                  : 48,0 КГц
    Частота кадров                           : 31,250 кадров/сек (1536 spf)
    Битовая глубина                          : 16 бит
    Метод сжатия                             : С потерями
    Размер потока                            : 281 Мбайт (19%)
    Заголовок                                : Профессиональный многоголосый - ТВ3
    Язык                                     : Russian
    Default                                  : Да
    Forced                                   : НетСвернуть


    Скриншоты:
    [img]http://lostpix.com/img/2017-01/08/ioi5oxntdc64iqki7xn4tsa4z.png[/img][img]http://lostpix.com/img/2017-01/08/jylm8z1gtf48y7au1i3hsadgo.png[/img][img]http://lostpix.com/img/2017-01/08/8z78swgh8tfxjlhofedcex3nq.png[/img]
    Похожие раздачи Искать похожие
    Инструкция по скачиванию
     1  Качаем uTorrent версии 2.0 и выше
     2  После установки, жмем выше под постером на ссылку Скачать [MediaGet] или Скачать .torrent
     3  Открываем скачанный файл через соответствующий клиент: MediaGet или uTorrent
     4  Ждем пока подключатся участники
     5  Качаем
    Комментарии о  Потерянная комната / The Lost Room [Серии 01-03 из 03] | WEB-DLRip-AVC 
    Ближайшее в кино
    Вверх