• Игры для PS4
  • Игры для PS3
  • Игры для XBOX360
  • Игры для PC
  • Игры для PS2
  • Игры для PSP
  • Для телефонов
  • Музыка
  • Книги / Журналы
  • Обои
  • Опрос
    Удобен ли сайт в использовании?
      0
    • Очень удобен, все понятно1,1,false,300,full
    • Удобен1,2,false,300,full
    • Средне1,3,false,300,full
    • Неудобен, трудно ориентироваться1,4,false,300,full
    • Совсем неудобен1,5,false,300,full
    Статистика
    Всего онлайн -
    Гостей -
    Пользователей -
    Короли трекера
    Благодарности () Закрыть
    Информация о фильме
    Название: Вспыш и чудо-машинки
    Оригинальное название: Blaze and the Monster Machines
    Год выхода: 2015-2016
    Страна: США, DHX Media, Nerd Corps Entertainment
    Жанр: Мультсериал, приключения, детский, комедия
    Сезон: 2
    Продолжительность: 19 х ~ 00:21:29
    Перевод: Профессиональный дублированный

    Режиссеры: Блэр Симмонс, Майкл Мартинес

    Роли озвучивали: Нолан Норт, Кевин Майкл Ричардсон, Нат Факсон, Дусан Браун, Ди Брэдли Бэйкер, Кейт Хиггинс, Джеймс Патрик Стюарт, Анджелина Уолер, Сунил Малхотра, Александр Полински

    О фильме: В небольшом красивом городке Аксель-Сити живут очень необычные жители. Это самые разные машины – маленькие и большие, одни из них никуда не спешат, другие, наоборот, постоянно куда-то спешат. Каждый герой обладает своим уникальным характером, своими умениями и любимыми занятиями. Но главное занятие, которое их объединяет – соревнования между собой. А чтобы в очередной раз узнать, кто является самым достойным, и может получить звание самого лучшего и быстрого автомобиля – они готовы соревноваться на самых сложных трассах города. Главным героем является пикап с интересным именем Вспыш. Его водителем является маленький мальчик по имени Эй-Джи. Он очень любит своего механического друга и готов отправиться с ним в самые опасные приключения. Его даже не пугают грозные и опасные соперники, такие как грузовик Крушила.

    Содержание

    2 сезон  (25 сентября  2015  - 2016)

    01. Огонь! / Fired Up!
    02. Дино-игры / Dino Dash
    03. Сладость или гадость / Truck or Treat!
    04. Гонка к Вершине Мира (1 часть) / Race to the Top of the World
    05. Гонка к Вершине Мира (2 часть) / Race to the Top of the World
    06. Рождество Вспыша / Monster Machine Christmas
    07. Рыцари-гонщики / Knight Riders
    08. Смельчак летит на Луну / Darington to the Moon!
    09. Свинка 500 / Piggy 500
    10. Огненный жук / Spark Bug
    11. Вспыш — пожарный / Five Alarm Blaze
    12. Большой кубок Аксель-Сити / Axle City Grand Prix
    13. Гонка за кладом / Treasure Track
    14. Унесённый лыжами / Rocket Ski Rescue
    15. Парад динозавров / Dinosaur Parade
    16. Гоночная Суперзвезда
    17. Гонка к орлиному камню / Race to Eagle Rock
    18. Небесная трасса
    19. Колесо Желаний
    Свернуть


    Доп. информация:
    Официальный сайт / Семпл

    Файл
    Формат: AVI
    Качество: HDTVRip
    Видео: 720x400 (1.80:1), 25 fps, XviD build 65 ~1577 kbps avg, 0.219 bit/pixel
    Звук: 48 kHz, AC3 Dolby Digital, 2/0 (L,R) ch, ~192.00 kbps avg
    Субтитры: нет

    MI

    s2e07. Рыцари-гонщики. XviD-merci-.avi
    Format                      : AVI
    Format/Info                 : Audio Video Interleave
    File size                   : 273 MiB
    Duration                    : 21 min 29 s
    Overall bit rate            : 1 779 kb/s
    Writing application         : VirtualDubMod 1.5.10.3 | www.virtualdub-fr.org || (build 2550/release)
    Writing library             : VirtualDubMod build 2550/release

    Video
    ID                          : 0
    Format                      : MPEG-4 Visual
    Format profile              : Advanced Simple@L5
    Format settings, BVOP       : 1
    Format settings, QPel       : No
    Format settings, GMC        : No warppoints
    Format settings, Matrix     : Default (MPEG)
    Codec ID                    : XVID
    Codec ID/Hint               : XviD
    Duration                    : 21 min 29 s
    Bit rate                    : 1 577 kb/s
    Width                       : 720 pixels
    Height                      : 400 pixels
    Display aspect ratio        : 16:9
    Frame rate                  : 25.000 FPS
    Color space                 : YUV
    Chroma subsampling          : 4:2:0
    Bit depth                   : 8 bits
    Scan type                   : Progressive
    Compression mode            : Lossy
    Bits/(Pixel*Frame)          : 0.219
    Stream size                 : 242 MiB (89%)
    Writing library             : XviD 65

    Audio
    ID                          : 1
    Format                      : AC-3
    Format/Info                 : Audio Coding 3
    Mode extension              : HI (hearing impaired)
    Format settings, Endianness : Big
    Codec ID                    : 2000
    Duration                    : 21 min 29 s
    Bit rate mode               : Constant
    Bit rate                    : 192 kb/s
    Channel(s)                  : 2 channels
    Channel positions           : Front: L R
    Sampling rate               : 48.0 kHz
    Frame rate                  : 31.250 FPS (1536 spf)
    Bit depth                   : 16 bits
    Compression mode            : Lossy
    Stream size                 : 29.5 MiB (11%)
    Alignment                   : Split accross interleaves
    Interleave, duration        : 40  ms (1.00 video frame)
    Interleave, preload duratio : 500  ms
    Свернуть


    Скриншоты

    [screen]http://i075.radikal.ru/1701/9b/e8737a10a9d0.jpg[/screen][screen]http://s020.radikal.ru/i700/1701/e2/290a1ff57166.jpg[/screen][screen]http://s018.radikal.ru/i505/1701/4c/f9e70deda46c.jpg[/screen][screen]http://s019.radikal.ru/i644/1701/ec/567146cb6e4e.jpg[/screen][screen]http://s018.radikal.ru/i519/1701/83/20f49552d4c1.jpg[/screen][screen]http://s013.radikal.ru/i322/1701/55/88587c10af17.jpg[/screen]
    Свернуть
    Похожие раздачи Искать похожие
    Инструкция по скачиванию
     1  Качаем uTorrent версии 2.0 и выше
     2  После установки, жмем выше под постером на ссылку Скачать [MediaGet] или Скачать .torrent
     3  Открываем скачанный файл через соответствующий клиент: MediaGet или uTorrent
     4  Ждем пока подключатся участники
     5  Качаем
    Комментарии о  Вспыш и чудо-машинки / Blaze and the Monster Machines [Сезон 02 | 01-19 серии из ?] | HDTVRip 
    Ближайшее в кино
    Вверх