• Игры для PS3
  • Игры для XBOX360
  • Игры для PC
  • Игры для PS2
  • Игры для PSP
  • Для телефонов
  • Музыка
  • Книги/Журналы
  • Обои
  •  
    Опрос
    Откуда Вы о нас узнали?
      0
    • От знакомых2,1,false,300,full
    • Из социальных сетей2,2,false,300,full
    • Из поисковых систем2,3,false,300,full
    • Другое2,4,false,300,full
    Статистика
    Загрузка...
    Тупик / Dead End | WEB-DLRip
    Статус  Проверено
    В закладки
    Модератор: Max

    Тупик / Dead End | WEB-DLRip [Фильмы 2003] скачать торрентом/torrent бесплатно

    Год выхода
    Язык
    Закачал
    Max | 13 февраля 2017 в 09ч 08м 14с
    Раздел
    Отзывов
    0
    Раздают: 8 Качают: 0 Скачали: 8 Размер: 1.46 GB
    Файлы (1) | Благодарности | Хэш код |
    0/5
    0
    Поддержи нас — расскажи друзьям!
    Orbitum
    Новый интернет-браузер Быстрее загружает сайты Экономит интернет—трафик Меняет оформление страницы ВК Блокирует всю рекламу на сайтах Загружает торренты как

    µTorrent

    клиент
    Объеденяет все твои чаты из соц. сетей в один Проигрывает твою музыку не заходя во ВКонтакте
    Скачать и многое другое... Подробности на сайте производителя
    Производство: Франция / Sagittaire Films, Captain Movies
    Жанр:  Ужасы, Триллер, Комедия, Детектив
    Перевод: Профессиональный (многоголосный, закадровый) по заказу  Екатеринбург Арт
    Режиссер: Жан-Баптист Андреа, Фабрис Канепа
    Актеры: Александра Холден, Рэй Уайз, Лин Шэй, Мик Кэйн, Эмбер Смит, Билли Эшер, Карен С. Греган, Шэрон Мэдден, Стив Валентайн, Джимми Ф. Скэггз

    Описание:
    Все последние 20 лет Фрэнк отвозил семью на Рождество к своей теще и всегда ездил одной и той же дорогой. На это раз он решил сократить путь, проехав через лес. И совершенно напрасно…
    По лесу бродит таинственная женщина в белом, сеющая смерть. Ужасный черный автомобиль с невидимым шофером увозит жертвы в ночную тьму. На каждом дорожном знаке указан пункт назначения, которого невозможно достичь. Те же, кому посчастливится выжить, уже никогда и ничего не смогут рассказать о том, что произошло с ними в эту Рождественскую ночь…


    Продолжительность: 01:23:19

    Качество видео: WEB-DLRip
    Видео: 720x384 (1.88:1), 29.970 fps, XviD build 73 ~2106 kbps, 0.25 bit/pixel
    Аудио: 48 kHz, AC3 Dolby Digital, 6 ch, ~384 kbps

    Mediainfo

    Формат                                   : AVI
    Формат/Информация                        : Audio Video Interleave
    Размер файла                             : 1,46 Гбайт
    Продолжительность                        : 1 ч. 23 м.
    Общий поток                              : 2502 Кбит/сек
    Программа кодирования                    : VirtualDubMod 1.5.10.3 | www.virtualdub-fr.org || (build 2550/release)
    Библиотека кодирования                   : VirtualDubMod build 2550/release

    Видео
    Идентификатор                            : 0
    Формат                                   : MPEG-4 Visual
    Профиль формата                          : Advanced Simple@L5
    Параметр BVOP формата                    : 1
    Параметр QPel формата                    : Нет
    Параметр GMC формата                     : Без точки перехода
    Параметр матрицы формата                 : Выборочная
    Идентификатор кодека                     : XVID
    Идентификатор кодека/Подсказка           : XviD
    Продолжительность                        : 1 ч. 23 м.
    Битрейт                                  : 2106 Кбит/сек
    Ширина                                   : 720 пикселей
    Высота                                   : 384 пикселя
    Соотношение сторон                       : 1,85:1
    Частота кадров                           : 29,970 (30000/1001) кадров/сек
    Цветовое пространство                    : YUV
    Субдискретизация насыщенности            : 4:2:0
    Битовая глубина                          : 8 бит
    Тип развёртки                            : Прогрессивная
    Метод сжатия                             : С потерями
    Бит/(Пиксели*Кадры)                      : 0.254
    Размер потока                            : 1,23 Гбайт (84%)
    Библиотека кодирования                   : XviD 73

    Аудио
    Идентификатор                            : 1
    Формат                                   : AC-3
    Формат/Информация                        : Audio Coding 3
    Расширение режима                        : CM (complete main)
    Параметр Endianness формата              : Big
    Идентификатор кодека                     : 2000
    Продолжительность                        : 1 ч. 23 м.
    Вид битрейта                             : Постоянный
    Битрейт                                  : 384 Кбит/сек
    Каналы                                   : 6 каналов
    Расположение каналов                     : Front: L C R, Side: L R, LFE
    Частота                                  : 48,0 КГц
    Частота кадров                           : 31,250 кадров/сек (1536 spf)
    Битовая глубина                          : 16 бит
    Метод сжатия                             : С потерями
    Размер потока                            : 229 Мбайт (15%)
    Выравнивание                             : Разделение по промежуткам
    Продолжительность промежутка             : 33  мс. (1,00 видеокадр)
    Время предзагрузки промежутка            : 500  мс.


    Скриншоты:
    [img]http://i1.imageban.ru/out/2017/02/13/0656be5f46052c0fb95677c4d56960ca.png[/img][img]http://i2.imageban.ru/out/2017/02/13/02164b5e840b261810b9b5325d36c804.png[/img][img]http://i3.imageban.ru/out/2017/02/13/6e9b04824287cf09a49673d3d2178ca4.png[/img]
    Еще похожие »

    Как скачать?
    1. Качаем UTorrent версии 2.0 и выше отсюда
    2. После установки, жмем на ссылку Скачать торрент.
    3. Открываем его через utorrent.
    4. Ждем пока подключатся участники.
    5. Качаем.


    Комментарии о Тупик / Dead End | WEB-DLRip
    Добавлять комментарии могут только зарегистрированные пользователи

    Зарегистрироваться или Войти


    Ближайшее в кино
    • Пианистка дата выхода 18 января 2018Пианистка
      Дата выхода: 18 января 2018
    • Форма воды дата выхода 18 января 2018Форма воды
      Дата выхода: 18 января 2018
    • Астрал 4: Последний ключ дата выхода 18 января 2018Астрал 4: Последний ключ
      Дата выхода: 18 января 2018
    • Темные времена дата выхода 18 января 2018Темные времена
      Дата выхода: 18 января 2018
    • Скиф дата выхода 18 января 2018Скиф
      Дата выхода: 18 января 2018
    • Приключения Паддингтона 2 дата выхода 18 января 2018Приключения Паддингтона 2
      Дата выхода: 18 января 2018
    • Карп отмороженный дата выхода 18 января 2018Карп отмороженный
      Дата выхода: 18 января 2018
    • Мешок без дна дата выхода 18 января 2018Мешок без дна
      Дата выхода: 18 января 2018
    • МУЛЬТ в кино. Выпуск №67. Зимний карнавал дата выхода 20 января 2018МУЛЬТ в кино. Выпуск №67. Зимний карнавал
      Дата выхода: 20 января 2018
    • Смерть Сталина дата выхода 25 января 2018Смерть Сталина
      Дата выхода: 25 января 2018
    • Zомбоящик дата выхода 25 января 2018Zомбоящик
      Дата выхода: 25 января 2018
    • Хэппи-энд дата выхода 25 января 2018Хэппи-энд
      Дата выхода: 25 января 2018
    • Побег из Рио дата выхода 25 января 2018Побег из Рио
      Дата выхода: 25 января 2018
    • Девушка в тумане дата выхода 25 января 2018Девушка в тумане
      Дата выхода: 25 января 2018
    • Выставка Hokusai Британского музея дата выхода 25 января 2018Выставка Hokusai Британского музея
      Дата выхода: 25 января 2018
    Вверх