• Игры для PS4
  • Игры для PS3
  • Игры для XBOX360
  • Игры для PC
  • Игры для PS2
  • Игры для PSP
  • Для телефонов
  • Музыка
  • Книги / Журналы
  • Обои
  • Опрос
    Откуда Вы о нас узнали?
      0
    • От знакомых2,1,false,300,full
    • Из социальных сетей2,2,false,300,full
    • Из поисковых систем2,3,false,300,full
    • Другое2,4,false,300,full
    Статистика
    Всего онлайн -
    Гостей -
    Пользователей -
    Короли трекера
    Благодарности () Закрыть
    Информация о фильме
    Название: Захват поезда Пелэм 1-2-3
    Оригинальное название: The Taking of Pelham One Two Three
    Год выхода: 1974
    Жанр: Триллер
    Режиссер: Джозеф Сарджент
    В ролях:   Уолтер Мэттау, Роберт Шоу, Мартин Болсам, Гектор Элизондо, Эрл Хиндмэн, Джеймс Бродерик, Дик О’Нил, Ли Уоллес, Беатрис Уинд, Джерри Стиллер, Натан Джордж, Руди Бонд, Кеннет МакМиллан, Дорис Робертс, Джулиус Харрис
    Описание: Нью-Йорк. Четверо вооружённых людей захватывают вагон метро под улицами Манхэттэна и берут всех пассажиров в заложники. Они требуют миллион долларов. Власти принимают решение удовлетворить требование террористов, они считают, что у злоумышленников нет шансов улизнуть из подземки с такими деньгами. Но у четвёрки хитрый план…
    Страна: США
    Студия: Palomar Pictures (I), Palladium Productions
    Продолжительность: 01:44:16
    Перевод: Профессиональный многоголосый (ОРТ), профессиональный двухголосый (НТВ+), авторский (Визгунов, Карцев)
    Файл
    Кодек: MPEG-2
    Качество: DVD-9
    Видео: MPEG2, NTSC 16:9 (720x480@853x480) VBR, 23,976 кадра/сек
    Звук: Русский / Английский  DD 2.0 (192 Kbps)



    Меню
    [screen]http://i91.fastpic.ru/big/2017/0323/30/793c90cf8ce78a50e862d23969129530.jpg[/screen] Свернуть


    DVDInfo

    Title:
    Size: 5.91 Gb ( 6 192 696 KBytes ) - DVD-9
    Enabled regions: 1, 2, 3, 4, 5, 6, 7, 8

    VTS_01 :
    Play Length: 01:44:16+00:02:32+00:00:09
    Video: NTSC 16:9 (720x480) VBR, Auto Pan&Scan
    Audio:
    Russian (Dolby AC3, 2 ch)
    Russian (Dolby AC3, 2 ch)
    Russian (Dolby AC3, 2 ch)
    Russian (Dolby AC3, 2 ch)
    English (Dolby AC3, 2 ch)

    Menu Video:
    NTSC 4:3 (720x480) VBR
    Menu English Language Unit :
    Root Menu

    Свернуть


    MediaInfo


    Общее
    Полное имя                               : G:ААА2Захват поезда Пелэм 1-2-3VIDEO_TSVTS_01_1.VOB
    Формат                                   : MPEG-PS
    Размер файла                             : 1000 Мбайт
    Продолжительность                        : 17 м.
    Режим общего битрейта                    : Переменный
    Общий поток                              : 7794 Кбит/сек

    Видео
    Идентификатор                            : 224 (0xE0)
    Формат                                   : MPEG Video
    Версия формата                           : Version 2
    Профиль формата                          : Main@Main
    Параметр BVOP формата                    : Да
    Параметр матрицы формата                 : По умолчанию
    Параметр GOP формата                     : M=3, N=12
    Продолжительность                        : 17 м.
    Вид битрейта                             : Переменный
    Битрейт                                  : 6678 Кбит/сек
    Максимальный битрейт                     : 8248 Кбит/сек
    Ширина                                   : 720 пикселей
    Высота                                   : 480 пикселей
    Соотношение сторон                       : 16:9
    Частота кадров                           : 23,976 кадра/сек
    Стандарт вещания                         : NTSC
    Цветовое пространство                    : YUV
    Субдискретизация насыщенности            : 4:2:0
    Битовая глубина                          : 8 бит
    Тип развёртки                            : Прогрессивная
    Порядок развёртки                        : 2:3 Pulldown
    Метод сжатия                             : С потерями
    Бит/(Пиксели*Кадры)                      : 0.806
    TimeCode_FirstFrame                      : 00:00:00;00
    TimeCode_Source                          : Group of pictures header
    Размер потока                            : 857 Мбайт (86%)

    Аудио #1
    Идентификатор                            : 189 (0xBD)-128 (0x80)
    Формат                                   : AC-3
    Формат/Информация                        : Audio Coding 3
    Расширение режима                        : CM (complete main)
    Параметр Endianness формата              : Big
    Режим смешивания                         : DVD-Video
    Продолжительность                        : 17 м.
    Вид битрейта                             : Постоянный
    Битрейт                                  : 192 Кбит/сек
    Каналы                                   : 2 канала
    Расположение каналов                     : Front: L R
    Частота                                  : 48,0 КГц
    Битовая глубина                          : 16 бит
    Метод сжатия                             : С потерями
    Размер потока                            : 24,6 Мбайт (2%)

    Аудио #2
    Идентификатор                            : 189 (0xBD)-129 (0x81)
    Формат                                   : AC-3
    Формат/Информация                        : Audio Coding 3
    Расширение режима                        : CM (complete main)
    Параметр Endianness формата              : Big
    Режим смешивания                         : DVD-Video
    Продолжительность                        : 17 м.
    Вид битрейта                             : Постоянный
    Битрейт                                  : 192 Кбит/сек
    Каналы                                   : 2 канала
    Расположение каналов                     : Front: L R
    Частота                                  : 48,0 КГц
    Битовая глубина                          : 16 бит
    Метод сжатия                             : С потерями
    Размер потока                            : 24,6 Мбайт (2%)

    Аудио #3
    Идентификатор                            : 189 (0xBD)-130 (0x82)
    Формат                                   : AC-3
    Формат/Информация                        : Audio Coding 3
    Расширение режима                        : CM (complete main)
    Параметр Endianness формата              : Big
    Режим смешивания                         : DVD-Video
    Продолжительность                        : 17 м.
    Вид битрейта                             : Постоянный
    Битрейт                                  : 192 Кбит/сек
    Каналы                                   : 2 канала
    Расположение каналов                     : Front: L R
    Частота                                  : 48,0 КГц
    Битовая глубина                          : 16 бит
    Метод сжатия                             : С потерями
    Размер потока                            : 24,6 Мбайт (2%)

    Аудио #4
    Идентификатор                            : 189 (0xBD)-131 (0x83)
    Формат                                   : AC-3
    Формат/Информация                        : Audio Coding 3
    Расширение режима                        : CM (complete main)
    Параметр Endianness формата              : Big
    Режим смешивания                         : DVD-Video
    Продолжительность                        : 17 м.
    Вид битрейта                             : Постоянный
    Битрейт                                  : 192 Кбит/сек
    Каналы                                   : 2 канала
    Расположение каналов                     : Front: L R
    Частота                                  : 48,0 КГц
    Битовая глубина                          : 16 бит
    Метод сжатия                             : С потерями
    Размер потока                            : 24,6 Мбайт (2%)

    Аудио #5
    Идентификатор                            : 189 (0xBD)-132 (0x84)
    Формат                                   : AC-3
    Формат/Информация                        : Audio Coding 3
    Расширение режима                        : CM (complete main)
    Параметр Endianness формата              : Big
    Режим смешивания                         : DVD-Video
    Продолжительность                        : 17 м.
    Вид битрейта                             : Постоянный
    Битрейт                                  : 192 Кбит/сек
    Каналы                                   : 2 канала
    Расположение каналов                     : Front: L R
    Частота                                  : 48,0 КГц
    Битовая глубина                          : 16 бит
    Метод сжатия                             : С потерями
    Размер потока                            : 24,6 Мбайт (2%)

    Меню

    Свернуть


    Скриншоты
      
    [screen]http://i89.fastpic.ru/big/2017/0323/1c/21cf079e980df1c8ec509ddd858f261c.png[/screen][screen]http://i89.fastpic.ru/big/2017/0323/53/8c955309dcf5bac11fc7176af587b853.png[/screen][screen]http://i89.fastpic.ru/big/2017/0323/70/1f6bdfe7e3b62d4d22c86df2e073d970.png[/screen][screen]http://i89.fastpic.ru/big/2017/0323/46/f6851d9e0858f4e76b6b0bf1eff79c46.png[/screen][screen]http://i89.fastpic.ru/big/2017/0323/fb/1c6aa6f930b450b165898d5c5fd09dfb.png[/screen][screen]http://i89.fastpic.ru/big/2017/0323/8a/a92b1651116a8a8c0925b6ab628cd18a.png[/screen]
    Свернуть
    Инструкция по скачиванию
     1  Качаем uTorrent версии 2.0 и выше
     2  После установки, жмем выше под постером на ссылку Скачать [MediaGet] или Скачать .torrent
     3  Открываем скачанный файл через соответствующий клиент: MediaGet или uTorrent
     4  Ждем пока подключатся участники
     5  Качаем
    Комментарии о  Захват поезда Пелэм 1-2-3 / The Taking of Pelham One Two Three | DVD-9 
    Ближайшее в кино
    Вверх