• Игры для PS4
  • Игры для PS3
  • Игры для XBOX360
  • Игры для PC
  • Игры для PS2
  • Игры для PSP
  • Для телефонов
  • Музыка
  • Книги/Журналы
  • Обои
  •  
    Опрос
    Откуда Вы о нас узнали?
      0
    • От знакомых2,1,false,300,full
    • Из социальных сетей2,2,false,300,full
    • Из поисковых систем2,3,false,300,full
    • Другое2,4,false,300,full
    Статистика
    Загрузка...
    Живое / Life | WEB-DL 720p
    Статус  Проверено
    В закладки
    Модератор: Max

    Живое / Life | WEB-DL 720p [Фильмы 2017] скачать торрентом/torrent бесплатно

    Год выхода
    Язык
    Закачал
    Max | 06 июня 2017 в 08ч 41м 47с
    Раздел
    Отзывов
    0
    Раздают: 1 Качают: 0 Скачали: 1 Размер: 3.51 GB
    Инфо о раздаче | Благодарности |
    0/5
    0
    0 5 0
    Поддержи нас — расскажи друзьям!
    Orbitum
    Новый интернет-браузер Быстрее загружает сайты Экономит интернет—трафик Меняет оформление страницы ВК Блокирует всю рекламу на сайтах Загружает торренты как

    µTorrent

    клиент
    Объеденяет все твои чаты из соц. сетей в один Проигрывает твою музыку не заходя во ВКонтакте
    Скачать и многое другое... Подробности на сайте производителя
    Информация о фильме
    Название: Живое
    Оригинальное название: Life
    Год выхода: 2017
    Жанр: Ужасы, фантастика, триллер
    Режиссер: Даниэль Эспиноса
    В ролях: Джейк Джилленхол, Ребекка Фергюсон (II), Райан Рейнольдс, Ольга Дыховичная, Эрион Бакаре, Хироюки Санада, Наоко Мори, Александр Нгуйен, Камиль Уоррен-Тейлор, Хиу Ун-Син

    О фильме:
    Международная космическая станция. Наши дни. С Марса прилетает модуль с образцами пород, куда совершенно случайно затесалась тамошняя инфузория-тапочка в свежезамороженном состоянии. Команда исследователей с упоением начинает издеваться над чужеродным организмом: помещает его в кислотную среду, кормит денатуратом с ложечки, бьет электрическим шокером и поджаривает лазерным резаком. В результате перенесенных потрясений инопланетный гость превращается в агрессивно настроенного пожирателя мозгов, выбирается из инкубатора и устраивает экипажу станции веселую жизнь



    Страна: США
    Студия: Columbia Pictures, Skydance Productions, Sony Pictures Entertainment (SPE)
    Продолжительность: 01:43:58
    Перевод: Дублированный | iTunes

    Файл
    Качество: WEB-DL 720p
    Видео: MPEG-4 AVC, 1280x532, 4068 Кbit/s, 23.976 fps
    Звук:
    Аудио #01: 48 kHz, AC3, 5.1, 384 Kbps | Дублированный | iTunes | RUS |[img]http://lostpix.com/img/2016-04/26/ecarul7mj2gcrjkf30af8u4tk.gif[/img]
    Аудио #02: 48 kHz, AC3, 5.1, 384 Kbps | Оригинал |  ENG |[img]http://lostpix.com/img/2016-09/30/0icucyo5gq0qmwlibabcgmhiw.gif[/img]
    Субтитры: Русские (full, forced), английские

    [img]http://s019.radikal.ru/i619/1706/2a/1964175a3458t.jpg[/img][img]http://s012.radikal.ru/i319/1706/1c/5c4ad92d3827t.jpg[/img][img]http://s41.radikal.ru/i093/1706/30/68b4b7a07abct.jpg[/img][img]http://s46.radikal.ru/i111/1706/b3/3832d308b79ct.jpg[/img][img]http://s015.radikal.ru/i331/1706/eb/960303665540t.jpg[/img]

    MI
    General
    Unique ID                   : 194788464009110554468811750271998635035 (0x928AE4C0B7A7740FA81E86EF6FDE2C1B)
    Complete name               : C:UsersbattiDesktopLife.2017.WEB-DL.720p.ExKinoRay.mkv
    Format                      : Matroska
    Format version              : Version 4 / Version 2
    File size                   : 3.51 GiB
    Duration                    : 1 h 43 min
    Overall bit rate            : 4 838 kb/s
    Encoded date                : UTC 2017-06-05 20:51:34
    Writing application         : mkvmerge v12.0.0 ("Trust / Lust") 64bit
    Writing library             : libebml v1.3.4 + libmatroska v1.4.5

    Video
    ID                          : 1
    Format                      : AVC
    Format/Info                 : Advanced Video Codec
    Format profile              : Main@L3.1
    Format settings, CABAC      : No
    Format settings, ReFrames   : 2 frames
    Codec ID                    : V_MPEG4/ISO/AVC
    Duration                    : 1 h 43 min
    Bit rate                    : 4 068 kb/s
    Width                       : 1 280 pixels
    Height                      : 532 pixels
    Display aspect ratio        : 2.40:1
    Frame rate mode             : Constant
    Frame rate                  : 23.976 (23976/1000) FPS
    Color space                 : YUV
    Chroma subsampling          : 4:2:0
    Bit depth                   : 8 bits
    Scan type                   : Progressive
    Bits/(Pixel*Frame)          : 0.249
    Stream size                 : 2.95 GiB (84%)
    Language                    : English
    Default                     : Yes
    Forced                      : No
    Color range                 : Limited
    Color primaries             : BT.709
    Transfer characteristics    : BT.709
    Matrix coefficients         : BT.709

    Audio #1
    ID                          : 2
    Format                      : AC-3
    Format/Info                 : Audio Coding 3
    Format settings, Endianness : Big
    Codec ID                    : A_AC3
    Duration                    : 1 h 43 min
    Bit rate mode               : Constant
    Bit rate                    : 384 kb/s
    Channel(s)                  : 6 channels
    Channel positions           : Front: L C R, Side: L R, LFE
    Sampling rate               : 48.0 kHz
    Frame rate                  : 31.250 FPS (1536 spf)
    Bit depth                   : 16 bits
    Compression mode            : Lossy
    Stream size                 : 286 MiB (8%)
    Title                       : iTunes
    Language                    : Russian
    Service kind                : Complete Main
    Default                     : Yes
    Forced                      : No

    Audio #2
    ID                          : 3
    Format                      : AC-3
    Format/Info                 : Audio Coding 3
    Format settings, Endianness : Big
    Codec ID                    : A_AC3
    Duration                    : 1 h 43 min
    Bit rate mode               : Constant
    Bit rate                    : 384 kb/s
    Channel(s)                  : 6 channels
    Channel positions           : Front: L C R, Side: L R, LFE
    Sampling rate               : 48.0 kHz
    Frame rate                  : 31.250 FPS (1536 spf)
    Bit depth                   : 16 bits
    Compression mode            : Lossy
    Stream size                 : 286 MiB (8%)
    Title                       : Original
    Language                    : English
    Service kind                : Complete Main
    Default                     : No
    Forced                      : No

    Text #1
    ID                          : 4
    Format                      : UTF-8
    Codec ID                    : S_TEXT/UTF8
    Codec ID/Info               : UTF-8 Plain Text
    Duration                    : 1 h 41 min
    Bit rate                    : 2 b/s
    Count of elements           : 38
    Stream size                 : 1.50 KiB (0%)
    Title                       : Forced
    Language                    : Russian
    Default                     : Yes
    Forced                      : No

    Text #2
    ID                          : 5
    Format                      : UTF-8
    Codec ID                    : S_TEXT/UTF8
    Codec ID/Info               : UTF-8 Plain Text
    Duration                    : 1 h 41 min
    Bit rate                    : 73 b/s
    Count of elements           : 1128
    Stream size                 : 54.5 KiB (0%)
    Title                       : Full
    Language                    : Russian
    Default                     : No
    Forced                      : No

    Text #3
    ID                          : 6
    Format                      : UTF-8
    Codec ID                    : S_TEXT/UTF8
    Codec ID/Info               : UTF-8 Plain Text
    Duration                    : 1 h 31 min
    Bit rate                    : 43 b/s
    Count of elements           : 881
    Stream size                 : 29.0 KiB (0%)
    Title                       : Full
    Language                    : English
    Default                     : No
    Forced                      : No

    Menu
    00:00:00.000                : en: Chapter 1
    00:03:37.092                : en: Chapter 2
    00:09:18.349                : en: Chapter 3
    00:13:22.343                : en: Chapter 4
    00:16:55.681                : en: Chapter 5
    00:22:49.910                : en: Chapter 6
    00:27:42.035                : en: Chapter 7
    00:32:01.878                : en: Chapter 8
    00:38:23.843                : en: Chapter 9
    00:44:51.397                : en: Chapter 10
    00:51:22.162                : en: Chapter 11
    00:56:50.782                : en: Chapter 12
    01:01:31.062                : en: Chapter 13
    01:08:08.293                : en: Chapter 14
    01:13:12.221                : en: Chapter 15
    01:17:02.284                : en: Chapter 16
    01:21:08.447                : en: Chapter 17
    01:25:17.195                : en: Chapter 18
    01:29:20.355                : en: Chapter 19
    01:34:59.277                : en: Chapter 20
    01:40:19.513                : en: Chapter 21
    01:43:49.181                : en: Chapter 22
    01:47:46.794                : en: Chapter 23
    01:52:30.661                : en: Chapter 24
    01:56:30.775                : en: Chapter 25
    02:04:22.121                : en: Chapter 26
    02:09:17.458                : en: Chapter 27
    02:19:59.057                : en: Chapter 28


    [img]http://lostpix.com/img/2017-03/22/pa3kns75lpl0e564ik1il8ow9.gif[/img]
    Еще похожие »

    Как скачать?
    1. Качаем UTorrent версии 2.0 и выше отсюда
    2. После установки, жмем на ссылку Скачать торрент.
    3. Открываем его через utorrent.
    4. Ждем пока подключатся участники.
    5. Качаем.


    Комментарии о Живое / Life | WEB-DL 720p
    Добавлять комментарии могут только зарегистрированные пользователи

    Зарегистрироваться или Войти


    Ближайшее в кино
    • МУЛЬТ в кино. Выпуск №79. Как в сказке! дата выхода 18 августа 2018МУЛЬТ в кино. Выпуск №79. Как в сказке!
      Дата выхода: 18 августа 2018
    • 1007425|Днюха!|23 августа 2018|200|300Днюха!
      Дата выхода: 23 августа 2018
    • 921938|22 мили|23 августа 2018|200|30022 мили
      Дата выхода: 23 августа 2018
    • 934956|Альфа|23 августа 2018|200|300Альфа
      Дата выхода: 23 августа 2018
    • 1023331|Отель «Артемида»|23 августа 2018|200|300Отель «Артемида»
      Дата выхода: 23 августа 2018
    • 1008748|Не волнуйся, он далеко не уйдёт|23 августа 2018|200|300Не волнуйся, он далеко не уйдёт
      Дата выхода: 23 августа 2018
    • 1008240|Последний беспредел|23 августа 2018|200|300Последний беспредел
      Дата выхода: 23 августа 2018
    • 789159|Шоу Мистико|23 августа 2018|200|300Шоу Мистико
      Дата выхода: 23 августа 2018
    • 986638|Принцесса и дракон|23 августа 2018|200|300Принцесса и дракон
      Дата выхода: 23 августа 2018
    • 675470|Голубая игуана|23 августа 2018|200|300Голубая игуана
      Дата выхода: 23 августа 2018
    • 1108921|Вилли и крутые тачки|23 августа 2018|200|300Вилли и крутые тачки
      Дата выхода: 23 августа 2018
    • 380|2001 год: Космическая одиссея|30 августа 2018|200|3002001 год: Космическая одиссея
      Дата выхода: 30 августа 2018
    • 1048294|Как женить холостяка|30 августа 2018|200|300Как женить холостяка
      Дата выхода: 30 августа 2018
    • 1114917|Гоголь. Страшная месть|30 августа 2018|200|300Гоголь. Страшная месть
      Дата выхода: 30 августа 2018
    • 939770|Выжившие|30 августа 2018|200|300Выжившие
      Дата выхода: 30 августа 2018
    Вверх