• Игры для PS4
  • Игры для PS3
  • Игры для XBOX360
  • Игры для PC
  • Игры для PS2
  • Игры для PSP
  • Для телефонов
  • Музыка
  • Книги/Журналы
  • Обои
  •  
    Опрос
    Удобен ли сайт в использовании?
      0
    • Очень удобен, все понятно1,1,false,300,full
    • Удобен1,2,false,300,full
    • Средне1,3,false,300,full
    • Неудобен, трудно ориентироваться1,4,false,300,full
    • Совсем неудобен1,5,false,300,full
    Статистика
    Загрузка...
    Чёрная бабочка / Black Butterfly | WEB-DLRip
    Статус  Проверено
    В закладки
    Модератор: Max

    Чёрная бабочка / Black Butterfly | WEB-DLRip [Фильмы 2017] скачать торрентом/torrent бесплатно

    Год выхода
    Категории
    Язык
    Закачал
    Max | 06 июня 2017 в 08ч 46м 56с
    Раздел
    Отзывов
    0
    Раздают: 2 Качают: 1 Скачали: 174 Размер: 424.5 MB
    Инфо о раздаче | Благодарности |
    0/5
    0
    0 5 0
    Поддержи нас — расскажи друзьям!
    Orbitum
    Новый интернет-браузер Быстрее загружает сайты Экономит интернет—трафик Меняет оформление страницы ВК Блокирует всю рекламу на сайтах Загружает торренты как

    µTorrent

    клиент
    Объеденяет все твои чаты из соц. сетей в один Проигрывает твою музыку не заходя во ВКонтакте
    Скачать и многое другое... Подробности на сайте производителя
    Информация о фильме
    Название: Черная бабочка
    Оригинальное название: Black Butterfly
    Год выхода: 2017
    Жанр:  триллер
    Режиссер: Брайан Гудман
    В ролях: Джонатан Риз Майерс, Пайпер Перабо, Антонио Бандерас, Абель Феррара, Николас Аарон, Винсент Риотта, Натали Рапти, Гомес Кэти, МакГоверн, Рэндолл Пол, Джоя Либардони

    О фильме: Пол — писатель, живущий в одиноком домике на отшибе. В последнее время его дела идут не очень: заказчик забраковал его последнюю книгу, а сам он пытается забыть о неудачах с помощью алкоголя. Однако жизнь отшельника резко меняется, когда он встречает незнакомца, помогающему ему избежать потасовки в придорожном кафе. Узнав, что незнакомец путешествует налегке, Пол предлагает тому остановиться у него на ночлег. Незнакомец неожиданно проявляет интерес к писателю и предлагает новый сюжет для его книги. Но кто он такой, и что означает загадочная татуировка в виде черной бабочки на его теле.



    Выпущено: США / Ambi Pictures, Battleplan Productions, Compadre Entertainment
    Продолжительность: 01:34:32
    Озвучивание: Любительское (многоголосое) [@MUZOBOZ@]

    ПРИМЕЧАНИЕ: ПРИСУТСТВУЕТ РЕКЛАМА!

    Файл
    Формат: MP4
    Качество: WEB-DLRip | КПК
    Видео: Н.264, 640x266 (2,40:1), 30.000 fps, 500 Kbps
    Звук: AAC LC, 48.0 KHz, 2 ch, 128 Kbps

    MI
    Общее
    Полное имя : C:UsersАлександрDesktopфильмBlack.Butterfly.2017.ImperiaFilm.mp4
    Формат : MPEG-4
    Профиль формата : Base Media
    Идентификатор кодека : isom (isom/avc1/iso6)
    Размер файла : 424 Мбайт
    Продолжительность : 1 ч. 34 м.
    Режим общего битрейта : Переменный
    Общий поток : 631 Кбит/сек
    Дата кодирования : UTC 2017-06-05 16:34:39
    Дата пометки : UTC 2017-06-05 16:34:39

    Видео
    Идентификатор : 1
    Формат : AVC
    Формат/Информация : Advanced Video Codec
    Профиль формата : High@L4.1
    Параметр CABAC формата : Да
    Параметр ReFrames формата : 10 кадров
    Идентификатор кодека : avc1
    Идентификатор кодека/Информация : Advanced Video Coding
    Продолжительность : 1 ч. 34 м.
    Битрейт : 500 Кбит/сек
    Максимальный битрейт : 2050 Кбит/сек
    Ширина : 640 пикселей
    Высота : 266 пикселей
    Соотношение сторон : 2,40:1
    Режим частоты кадров : Постоянный
    Частота кадров : 30,000 кадров/сек
    Цветовое пространство : YUV
    Субдискретизация насыщенности : 4:2:0
    Битовая глубина : 8 бит
    Тип развёртки : Прогрессивная
    Бит/(Пиксели*Кадры) : 0.098
    Размер потока : 336 Мбайт (79%)
    Заголовок : 264@GPAC0.5.2-DEV-rev248-g39d5978-master
    Библиотека кодирования : x264 core 146 r2538 121396c
    Настройки программы : cabac=1 / ref=10 / deblock=1:-3:-3 / analyse=0x3:0x113 / me=umh / subme=11 / psy=1 / psy_rd=1.00:0.00 / mixed_ref=1 / me_range=48 / chroma_me=1 / trellis=2 / 8x8dct=1 / cqm=0 / deadzone=21,11 / fast_pskip=0 / chroma_qp_offset=-2 / threads=6 / lookahead_threads=1 / sliced_threads=0 / nr=0 / decimate=0 / interlaced=0 / bluray_compat=0 / constrained_intra=0 / bframes=10 / b_pyramid=2 / b_adapt=2 / b_bias=0 / direct=3 / weightb=1 / open_gop=0 / weightp=2 / keyint=300 / keyint_min=30 / scenecut=40 / intra_refresh=0 / rc_lookahead=40 / rc=2pass / mbtree=0 / bitrate=500 / ratetol=1.0 / qcomp=0.60 / qpmin=0 / qpmax=69 / qpstep=4 / cplxblur=20.0 / qblur=0.5 / vbv_maxrate=14000 / vbv_bufsize=14000 / nal_hrd=none / filler=0 / ip_ratio=1.40 / pb_ratio=1.30 / aq=1:1.00
    Дата кодирования : UTC 2017-06-05 16:34:39
    Дата пометки : UTC 2017-06-05 16:35:06

    Аудио
    Идентификатор : 2
    Формат : AAC
    Формат/Информация : Advanced Audio Codec
    Профиль формата : LC
    Идентификатор кодека : 40
    Продолжительность : 1 ч. 34 м.
    Вид битрейта : Переменный
    Битрейт : 128 Кбит/сек
    Максимальный битрейт : 148 Кбит/сек
    Каналы : 2 канала
    Расположение каналов : Front: L R
    Частота : 48,0 КГц
    Частота кадров : 46,875 кадров/сек (1024 spf)
    Метод сжатия : С потерями
    Размер потока : 85,8 Мбайт (20%)
    Дата кодирования : UTC 2017-06-05 13:01:36
    Дата пометки : UTC 2017-06-05 16:35:06


    Скриншоты
    [img]http://i94.fastpic.ru/big/2017/0605/21/88c68f72af7929f23aca199835382821.jpg[/img][img]http://i93.fastpic.ru/big/2017/0605/42/3121252630f1dd5fd8c393a955395442.jpg[/img][img]http://i92.fastpic.ru/big/2017/0605/82/d6dbc2e4ae2ce2e25ad166e59b89fa82.jpg[/img]

    [img]http://i93.fastpic.ru/big/2017/0605/fa/e947825325896e2c4db2649ee45c95fa.jpg[/img][img]http://i94.fastpic.ru/big/2017/0605/20/cc0d237e8cf664aade4c159f1c53cc20.jpg[/img][img]http://i92.fastpic.ru/big/2017/0605/4e/2495b675fca3650ca1141413fe76af4e.jpg[/img]


    [img]http://i91.fastpic.ru/big/2017/0430/ee/411863a07f401662e4197d6d41f556ee.gif[/img][img]http://i91.fastpic.ru/big/2017/0430/f8/cb297ab242a60d92522abbf9810f00f8.gif[/img]
    Еще похожие »

    Как скачать?
    1. Качаем UTorrent версии 2.0 и выше отсюда
    2. После установки, жмем на ссылку Скачать торрент.
    3. Открываем его через utorrent.
    4. Ждем пока подключатся участники.
    5. Качаем.


    Комментарии о Чёрная бабочка / Black Butterfly | WEB-DLRip
    Добавлять комментарии могут только зарегистрированные пользователи

    Зарегистрироваться или Войти


    Ближайшее в кино
    • МУЛЬТ в кино. Выпуск №79. Как в сказке! дата выхода 18 августа 2018МУЛЬТ в кино. Выпуск №79. Как в сказке!
      Дата выхода: 18 августа 2018
    • 1007425|Днюха!|23 августа 2018|200|300Днюха!
      Дата выхода: 23 августа 2018
    • 921938|22 мили|23 августа 2018|200|30022 мили
      Дата выхода: 23 августа 2018
    • 934956|Альфа|23 августа 2018|200|300Альфа
      Дата выхода: 23 августа 2018
    • 1023331|Отель «Артемида»|23 августа 2018|200|300Отель «Артемида»
      Дата выхода: 23 августа 2018
    • 1008748|Не волнуйся, он далеко не уйдёт|23 августа 2018|200|300Не волнуйся, он далеко не уйдёт
      Дата выхода: 23 августа 2018
    • 1008240|Последний беспредел|23 августа 2018|200|300Последний беспредел
      Дата выхода: 23 августа 2018
    • 789159|Шоу Мистико|23 августа 2018|200|300Шоу Мистико
      Дата выхода: 23 августа 2018
    • 986638|Принцесса и дракон|23 августа 2018|200|300Принцесса и дракон
      Дата выхода: 23 августа 2018
    • 675470|Голубая игуана|23 августа 2018|200|300Голубая игуана
      Дата выхода: 23 августа 2018
    • 1108921|Вилли и крутые тачки|23 августа 2018|200|300Вилли и крутые тачки
      Дата выхода: 23 августа 2018
    • 380|2001 год: Космическая одиссея|30 августа 2018|200|3002001 год: Космическая одиссея
      Дата выхода: 30 августа 2018
    • 1048294|Как женить холостяка|30 августа 2018|200|300Как женить холостяка
      Дата выхода: 30 августа 2018
    • 1114917|Гоголь. Страшная месть|30 августа 2018|200|300Гоголь. Страшная месть
      Дата выхода: 30 августа 2018
    • 939770|Выжившие|30 августа 2018|200|300Выжившие
      Дата выхода: 30 августа 2018
    Вверх