• Игры для PS3
  • Игры для XBOX360
  • Игры для PC
  • Игры для PS2
  • Игры для PSP
  • Для телефонов
  • Музыка
  • Книги/Журналы
  • Обои
  •  
    Опрос
    Опрос отключен
    • Очень удобен, все понятно1,1,false,,
    • Удобен1,2,false,,
    • Средне1,3,false,,
    • Неудобен, трудно ориентироваться1,4,false,,
    • Совсем неудобен1,5,false,,
    Статистика
    Загрузка...
    ТОП Сериалов
    Драйвер на Ночь / Stretch | HDRip
    Статус  Проверено
    В закладки
    Модератор: Max

    Драйвер на Ночь / Stretch | HDRip [Фильмы 2014] скачать торрентом/torrent бесплатно

    Год выхода
    Категории
    Язык
    Закачал
    Max | 06 июня 2017 в 09ч 11м 19с
    Раздел
    Отзывов
    0
    Раздают: 19 Качают: 0 Скачали: 85 Размер: 426.17 MB
    Инфо о раздаче | Благодарности |
    0/5
    0
    0 5 0
    Поддержи нас — расскажи друзьям!
    Orbitum
    Новый интернет-браузер Быстрее загружает сайты Экономит интернет—трафик Меняет оформление страницы ВК Блокирует всю рекламу на сайтах Загружает торренты как

    µTorrent

    клиент
    Объеденяет все твои чаты из соц. сетей в один Проигрывает твою музыку не заходя во ВКонтакте
    Скачать и многое другое... Подробности на сайте производителя
    Информация о фильме
    Название: Драйвер на Ночь
    Оригинальное название: Stretch
    Год выхода: 2014
    Жанр:  Комедия, криминал
    Режиссер: Джо Карнахан
    В ролях: Патрик Уилсон, Эд Хелмс, Джеймс Бэдж Дэйл, Бруклин Декер, Крис Пайн, Джессика Альба, Рэй Лиотта, Дэвид Хассельхофф, Дженни Барбоза, Кевин Бигли, Сидни Брусо, Зак Калиг, Тиффани Калиг, Вуди Карнахан, Рэд Дейли, Макс Дэниелс, Ник Финск, Эдди Дж. Фернандез, Меган Аруффо, Доминик Багароцци

    О фильме:
    Невезучему шоферу лимузина до выплаты внушительного долга остается отработать всего одну смену. Его последним клиентом становится загадочный молодой миллиардер, пообещавший небывалые чаевые за несколько дополнительных услуг. В погоне за так нужными ему сейчас деньгами водитель ввязывается в безумные переделки на улицах Лос-Анджелеса, и чем больше ночь опускается на мегаполис, тем более призрачной видится ему надежда остаться в живых…



    Страна: США
    Студия: Blumhouse Productions, Chambara Pictures, IM Global, Universal Pictures
    Продолжительность: 01:34:58
    Перевод: Профессиональный (полное дублирование)

    Файл
    Формат: MP4
    Качество: HDRip | КПК
    Видео: Н.264, 640x266 (2,40:1), 24.000 fps, 500 Kbps
    Звук: AAC LC, 48.0 KHz, 2 ch, 128 Kbps

    MI
    Общее
    Полное имя                               : C:UsersАлександрDesktopфильмStretch.2014.7ImperiaFilm.mp4
    Формат                                   : MPEG-4
    Профиль формата                          : Base Media
    Идентификатор кодека                     : isom (isom/avc1/iso6)
    Размер файла                             : 426 Мбайт
    Продолжительность                        : 1 ч. 34 м.
    Режим общего битрейта                    : Переменный
    Общий поток                              : 630 Кбит/сек
    Дата кодирования                         : UTC 2017-06-05 23:11:54
    Дата пометки                             : UTC 2017-06-05 23:11:54

    Видео
    Идентификатор                            : 1
    Формат                                   : AVC
    Формат/Информация                        : Advanced Video Codec
    Профиль формата                          : High@L4.1
    Параметр CABAC формата                   : Да
    Параметр ReFrames формата                : 10 кадров
    Идентификатор кодека                     : avc1
    Идентификатор кодека/Информация          : Advanced Video Coding
    Продолжительность                        : 1 ч. 34 м.
    Битрейт                                  : 500 Кбит/сек
    Максимальный битрейт                     : 2377 Кбит/сек
    Ширина                                   : 640 пикселей
    Высота                                   : 266 пикселей
    Соотношение сторон                       : 2,40:1
    Режим частоты кадров                     : Постоянный
    Частота кадров                           : 24,000 кадра/сек
    Цветовое пространство                    : YUV
    Субдискретизация насыщенности            : 4:2:0
    Битовая глубина                          : 8 бит
    Тип развёртки                            : Прогрессивная
    Бит/(Пиксели*Кадры)                      : 0.122
    Размер потока                            : 338 Мбайт (79%)
    Заголовок                                : 264@GPAC0.5.2-DEV-rev248-g39d5978-master
    Библиотека кодирования                   : x264 core 146 r2538 121396c
    Настройки программы                      : cabac=1 / ref=10 / deblock=1:-3:-3 / analyse=0x3:0x113 / me=umh / subme=11 / psy=1 / psy_rd=1.00:0.00 / mixed_ref=1 / me_range=48 / chroma_me=1 / trellis=2 / 8x8dct=1 / cqm=0 / deadzone=21,11 / fast_pskip=0 / chroma_qp_offset=-2 / threads=6 / lookahead_threads=1 / sliced_threads=0 / nr=0 / decimate=0 / interlaced=0 / bluray_compat=0 / constrained_intra=0 / bframes=10 / b_pyramid=2 / b_adapt=2 / b_bias=0 / direct=3 / weightb=1 / open_gop=0 / weightp=2 / keyint=240 / keyint_min=24 / scenecut=40 / intra_refresh=0 / rc_lookahead=40 / rc=2pass / mbtree=0 / bitrate=500 / ratetol=1.0 / qcomp=0.60 / qpmin=0 / qpmax=69 / qpstep=4 / cplxblur=20.0 / qblur=0.5 / vbv_maxrate=14000 / vbv_bufsize=14000 / nal_hrd=none / filler=0 / ip_ratio=1.40 / pb_ratio=1.30 / aq=1:1.00
    Дата кодирования                         : UTC 2017-06-05 23:11:54
    Дата пометки                             : UTC 2017-06-05 23:12:10

    Аудио
    Идентификатор                            : 2
    Формат                                   : AAC
    Формат/Информация                        : Advanced Audio Codec
    Профиль формата                          : LC
    Идентификатор кодека                     : 40
    Продолжительность                        : 1 ч. 34 м.
    Вид битрейта                             : Переменный
    Битрейт                                  : 128 Кбит/сек
    Максимальный битрейт                     : 192 Кбит/сек
    Каналы                                   : 2 канала
    Расположение каналов                     : Front: L R
    Частота                                  : 48,0 КГц
    Частота кадров                           : 46,875 кадров/сек (1024 spf)
    Метод сжатия                             : С потерями
    Размер потока                            : 85,9 Мбайт (20%)
    Дата кодирования                         : UTC 2017-06-05 20:05:24
    Дата пометки                             : UTC 2017-06-05 23:12:10


    Скриншоты
    [img]http://i95.fastpic.ru/big/2017/0606/10/c842037f68aebe511f46594fe58e9910.jpg[/img][img]http://i94.fastpic.ru/big/2017/0606/17/a40386a706b43e3213b686fc09868017.jpg[/img][img]http://i95.fastpic.ru/big/2017/0606/a2/e8193bc080176e21473d00d8d8f1ffa2.jpg[/img]

    [img]http://i93.fastpic.ru/big/2017/0606/de/8b43b6aee48c5230b5ff303f3aa1a8de.jpg[/img][img]http://i96.fastpic.ru/big/2017/0606/d8/d02c4cfb6c7c4ba90bebc9580b88b3d8.jpg[/img][img]http://i92.fastpic.ru/big/2017/0606/25/c7a1ed350de52157cdaa1191d5ed5a25.jpg[/img]


    [img]http://i91.fastpic.ru/big/2017/0430/ee/411863a07f401662e4197d6d41f556ee.gif[/img][img]http://i91.fastpic.ru/big/2017/0430/f8/cb297ab242a60d92522abbf9810f00f8.gif[/img]
    Еще похожие »

    Как скачать?
    1. Качаем UTorrent версии 2.0 и выше отсюда
    2. После установки, жмем на ссылку Скачать торрент.
    3. Открываем его через utorrent.
    4. Ждем пока подключатся участники.
    5. Качаем.


    Комментарии о Драйвер на Ночь / Stretch | HDRip
    Добавлять комментарии могут только зарегистрированные пользователи

    Зарегистрироваться или Войти


    Ближайшее в кино
    • Хан Соло: Звёздные Войны. Истории дата выхода 24 мая 2018Хан Соло: Звёздные Войны. Истории
      Дата выхода: 24 мая 2018
    • 719155|Секса не будет!!!|24 мая 2018|200|300Секса не будет!!!
      Дата выхода: 24 мая 2018
    • 912012|Распрекрасный принц|24 мая 2018|200|300Распрекрасный принц
      Дата выхода: 24 мая 2018
    • 1006294|Круги дьявола|24 мая 2018|200|300Круги дьявола
      Дата выхода: 24 мая 2018
    • 842709|Садко|24 мая 2018|200|300Садко
      Дата выхода: 24 мая 2018
    • 1044310|Гупёшка|24 мая 2018|200|300Гупёшка
      Дата выхода: 24 мая 2018
    • 893681|Черновик|25 мая 2018|200|300Черновик
      Дата выхода: 25 мая 2018
    • 1138771|МУЛЬТ в кино. Выпуск 76. Лето, привет!|26 мая 2018|200|300МУЛЬТ в кино. Выпуск 76. Лето, привет!
      Дата выхода: 26 мая 2018
    • 959365|Невидимый гость|31 мая 2018|200|300Невидимый гость
      Дата выхода: 31 мая 2018
    • 762500|Красный воробей|31 мая 2018|200|300Красный воробей
      Дата выхода: 31 мая 2018
    • 843121|Как разговаривать с девушками на вечеринках|31 мая 2018|200|300Как разговаривать с девушками на вечеринках
      Дата выхода: 31 мая 2018
    • 965611|Истории призраков|31 мая 2018|200|300Истории призраков
      Дата выхода: 31 мая 2018
    • 1048530|Моя жизнь|31 мая 2018|200|300Моя жизнь
      Дата выхода: 31 мая 2018
    • 1030828|Псы под прикрытием|31 мая 2018|200|300Псы под прикрытием
      Дата выхода: 31 мая 2018
    • 927822|Два хвоста|31 мая 2018|200|300Два хвоста
      Дата выхода: 31 мая 2018
    Вверх