• Игры для PS4
  • Игры для PS3
  • Игры для XBOX360
  • Игры для PC
  • Игры для PS2
  • Игры для PSP
  • Для телефонов
  • Музыка
  • Книги / Журналы
  • Обои
  • Опрос
    Удобен ли сайт в использовании?
      0
    • Очень удобен, все понятно1,1,false,300,full
    • Удобен1,2,false,300,full
    • Средне1,3,false,300,full
    • Неудобен, трудно ориентироваться1,4,false,300,full
    • Совсем неудобен1,5,false,300,full
    Статистика
    Всего онлайн -
    Гостей -
    Пользователей -
    Короли трекера
    Благодарности () Закрыть
    Информация о фильме
    Название: Мир в войне
    Оригинальное название: The World at War
    Год выхода: 1973-1974
    Жанр: Документальный, военный, история
    Режиссер: Джереми Айзекс, Хью Раджет, Дэвид Элстайн, Питер Бэтти, Тэд Чилдз, Мартин Смит, Бэн Шефард, Джон Питт, Рэйе Фарр, Филлип Вайтхед, Майкл Дарлоу, Джером Кёль, Питер Тиффин
    В ролях: Лоуренс Оливье, Энтони Иден, Аверелл Гарриман, Альберт Шпеер, Зигфрид Вестфаль, Дж. Лоутон Коллинз, Лоуренс Даррел, Д. Колвилл, Луис Маунтбеттен

    О фильме:
    Непревзойденная по глубине и масштабу, эта многочасовая программа включает выдающуюся коллекцию кинохроники, составленную из архивов 18 нации; кадры домашнего видео, включая цветные съемки Адольфа Гитлера, сделанные Евой Браун; и непредвзятый рассказ о центральных военных событиях Второй Мировой войны. Фильм содержит интервью участников и очевидцев этой войны - от секретарши Гитлера до простых людей, оказавшихся за линией фронта. Берущие за живое, незабываемые истории, произошедшие с реальными людьми.



    Страна: Великобритания
    Студия: Thames Television
    Продолжительность: 35 x ~ 00:52:00
    Перевод: Профессиональный (многоголосый, закадровый) (СОЮЗ Видео)

    Файл
    Кодек: H.264
    Качество: Blu-ray 1080p
    Видео: 1920х1080, ~18 Мбит/с, 23,976 fps
    Звук #1: Русский (AC3, 2 ch, ~224 Кбит/с) |Многоголосый закадровый, СОЮЗ Видео|
    Звук #2: Aнглийский (DTS-HD MA, 6 ch, ~1683 Кбит/с)
    Звук #3: Aнглийский (LPCM, 2 ch, ~1536 Кбит/с)
    Субтитры: Русские, английские
    Скриншоты
    [screen]http://lostpic.net/orig_images/e/8/6/e86f06755d54497c2f72e03a53036ba2.png[/screen][screen]http://lostpic.net/orig_images/1/6/1/16138141ef9edd1fb4d2764363b1ca18.png[/screen]   [screen]http://lostpic.net/orig_images/4/2/1/421742bc2d0dcfed99fe9f8f26fc4ba3.png[/screen][screen]http://lostpic.net/orig_images/8/a/c/8acde662003880cdf193e52df791d1a1.png[/screen][screen]http://lostpic.net/orig_images/1/5/f/15f1c0c6a0db141b00db9e21102b6cc4.png[/screen][screen]http://lostpic.net/orig_images/4/3/f/43fd3629bb848954100d56acf55e1e9b.png[/screen][screen]http://lostpic.net/orig_images/1/e/f/1ef718230bf77ec6539193d9cf45fa71.png[/screen][screen]http://lostpic.net/orig_images/a/5/c/a5c5a0a2ab9b80d1ed673d92b914ab3d.png[/screen]Свернуть


    Серии
    01. Новая Германия (A New Germany). 1933-1939
    02. Далёкая война (Distant War). Сентябрь 1939 - май 1940
    03. Падение Франции (France Falls). Май-июнь 1940
    04. Один на один (Alone). Май 1940 - май 1941
    05. Барбаросса (Barbarossa). Июнь-декабрь 1941
    06. Банзай! (Bansai!). Япония, 1931-1942
    07. Своим путём (On Our Way). США, 1939-1942
    08. Пустыня (The Desert). Северная Африка, 1940-1943
    09. Сталинград (Stalingrad). Июнь 1942 - февраль 1943
    10. Волчья стая (Wolf Pack). Подводные лодки в Атлантике, 1939-1944
    11. Красная Звезда (Red Star). Советский Союз, 1941-1943
    12. Буря (Whirlwind). Бомбардировки Германии, сентябрь 1939 - апрель 1944
    13. Жёсткая старая кишка (Tough Old Gut). Италия, ноябрь 1942 - июнь 1944
    14. Завтра будет прекрасный день (It"s a Lovely Day Tomorrow). Бирма, 1942-1944
    15. Дом в огне (Home Fires). Британия, 1940-1944
    16. Внутри Рейха (Inside The Reich). Германия, 1940-1944
    17. Утро (Morning). Июнь-август 1944
    18. Оккупация (Occupation). Голландия, 1940-1944
    19. Клещи (Pincers). Август 1944 - март 1945
    20. Геноцид (Genocide). 1941-1945
    21. Возмездие (Nemesis). Германия, февраль-май 1945
    22. Япония (Japan). 1941-1945
    23. Тихий Океан (Pacific). Февраль 1942 - июль 1945
    24. Бомба (The Bomb). Февраль-сентябрь 1945
    25. Расплата (Reckoning). 1945... и далее
    26. Помните (Remember)
    Специальные выпуски:
    27. Секретарь Гитлера. Интервью с Траудль Юнге (Secretary to Hitler. Traudl Junge)
    28. От войны к миру (From War to Peace)
    29. Солдат (Warrior). Собрание различных интервью и киноархивов
    30. Гитлеровская Германия. Народное объединение (Hitler Germany. The People"s Community). 1933-1939
    31. Гитлеровская Германия. Тотальная война (Hitler Germany. Total War). 1939-1945
    32. Две смерти Адольфа Гитлера (The Two Deaths of Adolf Hitler)
    33. Заключительное решение. Часть 1 (The Final Solution. 1)
    34. Заключительное решение. Часть 2 (The Final Solution. 2)
    35. Создание фильма (The Making of the Series)Свернуть


    BDinfo DISK-1
    Disc Title:     DISK-1
    Disc Size:      42 537 128 666 bytes
    Protection:     AACS
    BD-Java:        No
    BDInfo:         0.5.4

    Notes:

    BDINFO HOME:
    Cinema Squid
    http://www.cinemasquid.com/blu-ray/tools/bdinfo

    INCLUDES FORUMS REPORT FOR:
    AVS Forum Blu-ray Audio and Video Specifications Thread
    http://www.avsforum.com/avs-vb/showthread.php?t=1155731

    ********************
    PLAYLIST: 00003.MPLS
    ********************

    Total   Video
    Title                                                           Codec   Length  Movie Size      Disc Size       Bitrate Bitrate Main Audio Track                          Secondary Audio Track
    -----                                                           ------  ------- --------------  --------------  ------- ------- ------------------                        ---------------------
    00003.MPLS                                                      AVC     0:54:45 8 613 988 800   42 537 128 666  20,97   17,94   DTS-HD Master 5.1 1683Kbps (48kHz/16-bit)
    DISC INFO:

    Disc Title:     DISK-1
    Disc Size:      42 537 128 666 bytes
    Protection:     AACS
    BD-Java:        No
    BDInfo:         0.5.4

    PLAYLIST REPORT:

    Name:                   00003.MPLS
    Length:                 0:54:45 (h:m:s)
    Size:                   8 613 988 800 bytes
    Total Bitrate:          20,97 Mbps

    VIDEO:

    Codec                   Bitrate             Deion
    -----                   -------             -----------
    MPEG-4 AVC Video        17935 kbps          1080p / 23,976 fps / 16:9 / High Profile 4.1

    AUDIO:

    Codec                           Language        Bitrate         Deion
    -----                           --------        -------         -----------
    DTS-HD Master Audio             English         1683 kbps       5.1 / 48 kHz / 1683 kbps / 16-bit (DTS Core: 5.1 / 48 kHz / 768 kbps / 16-bit)
    Dolby Digital Audio             Russian         224 kbps        2.0 / 48 kHz / 224 kbps / DN -4dB

    SUBTITLES:

    Codec                           Language        Bitrate         Deion
    -----                           --------        -------         -----------
    Presentation Graphics           Russian         36,420 kbps

    FILES:

    Name            Time In         Length          Size            Total Bitrate
    ----            -------         ------          ----            -------------
    00003.M2TS      0:00:00.000     0:54:45.615     8 613 988 800   20 974

    CHAPTERS:

    Number          Time In         Length          Avg Video Rate  Max 1-Sec Rate  Max 1-Sec Time  Max 5-Sec Rate  Max 5-Sec Time  Max 10Sec Rate  Max 10Sec Time  Avg Frame Size  Max Frame Size  Max Frame Time
    ------          -------         ------          --------------  --------------  --------------  --------------  --------------  --------------  --------------  --------------  --------------  --------------
    1               0:00:00.000     0:00:10.635     10 774 kbps     21 476 kbps     00:00:08.133    15 666 kbps     00:00:04.129    11 444 kbps     00:00:00.625    55 952 bytes    311 085 bytes   00:00:08.967
    2               0:00:10.635     0:01:46.064     18 663 kbps     26 566 kbps     00:01:14.574    25 173 kbps     00:01:11.738    23 654 kbps     00:01:11.946    97 300 bytes    290 487 bytes   00:00:24.524
    3               0:01:56.699     0:03:12.567     20 121 kbps     35 234 kbps     00:03:40.219    29 927 kbps     00:03:36.341    23 571 kbps     00:03:36.424    104 903 bytes   257 266 bytes   00:02:02.997
    4               0:05:09.267     0:00:55.305     18 408 kbps     32 448 kbps     00:05:31.748    26 388 kbps     00:05:31.581    24 065 kbps     00:05:28.828    95 970 bytes    277 267 bytes   00:05:32.874
    5               0:06:04.572     0:02:01.830     16 516 kbps     23 211 kbps     00:06:23.841    22 643 kbps     00:06:21.881    21 813 kbps     00:06:20.296    86 104 bytes    204 119 bytes   00:06:19.212
    6               0:08:06.402     0:03:12.442     17 595 kbps     23 497 kbps     00:10:42.516    23 255 kbps     00:10:41.515    23 000 kbps     00:10:38.012    91 734 bytes    235 494 bytes   00:08:25.630
    7               0:11:18.844     0:02:00.954     18 158 kbps     30 240 kbps     00:12:06.100    24 587 kbps     00:12:02.596    22 242 kbps     00:12:03.764    94 666 bytes    242 281 bytes   00:11:45.955
    8               0:13:19.798     0:01:42.435     17 083 kbps     21 172 kbps     00:14:00.631    19 169 kbps     00:14:06.470    19 071 kbps     00:14:06.470    89 064 bytes    246 692 bytes   00:14:06.512
    9               0:15:02.234     0:01:56.491     16 451 kbps     23 498 kbps     00:15:21.879    20 684 kbps     00:15:21.629    18 986 kbps     00:15:17.708    85 769 bytes    228 125 bytes   00:16:04.213
    10              0:16:58.726     0:03:27.999     16 683 kbps     25 804 kbps     00:17:45.272    24 031 kbps     00:17:08.569    23 407 kbps     00:17:08.444    86 976 bytes    250 488 bytes   00:18:18.639
    11              0:20:26.725     0:05:57.774     18 528 kbps     29 956 kbps     00:21:36.295    26 096 kbps     00:25:43.083    24 067 kbps     00:25:37.953    96 598 bytes    357 855 bytes   00:23:06.843
    12              0:26:24.499     0:00:14.097     24 155 kbps     32 922 kbps     00:26:29.713    29 558 kbps     00:26:29.296    27 222 kbps     00:26:28.378    125 933 bytes   209 202 bytes   00:26:30.463
    13              0:26:38.597     0:06:50.910     19 647 kbps     38 007 kbps     00:33:10.113    28 835 kbps     00:27:25.810    26 816 kbps     00:27:22.432    102 432 bytes   269 970 bytes   00:33:10.989
    14              0:33:29.507     0:04:14.128     18 017 kbps     24 842 kbps     00:33:44.355    23 134 kbps     00:34:21.267    22 723 kbps     00:34:16.137    93 934 bytes    250 670 bytes   00:35:52.316
    15              0:37:43.636     0:08:07.570     18 764 kbps     32 745 kbps     00:41:28.277    28 419 kbps     00:41:28.027    27 559 kbps     00:41:24.648    97 829 bytes    258 170 bytes   00:42:42.476
    16              0:45:51.206     0:02:31.734     15 339 kbps     23 230 kbps     00:46:06.930    22 603 kbps     00:46:06.764    19 924 kbps     00:46:01.759    79 972 bytes    192 527 bytes   00:46:30.120
    17              0:48:22.941     0:02:32.902     15 156 kbps     22 039 kbps     00:50:01.748    20 597 kbps     00:50:00.956    19 093 kbps     00:50:00.872    79 018 bytes    260 209 bytes   00:50:54.801
    18              0:50:55.844     0:03:49.771     16 524 kbps     27 520 kbps     00:52:40.782    24 518 kbps     00:52:38.363    22 718 kbps     00:52:32.941    86 181 bytes    335 812 bytes   00:54:44.239

    STREAM DIAGNOSTICS:

    File            PID             Type            Codec           Language                Seconds                 Bitrate                 Bytes           Packets
    ----            ---             ----            -----           --------                --------------          --------------          -------------   -----
    00003.M2TS      4113 (0x1011)   0x1B            AVC                                     3285,532                17 936                  7 366 220 866   40 080 737
    00003.M2TS      4352 (0x1100)   0x81            AC3             rus (Russian)           3285,532                224                     91 997 696      513 380
    00003.M2TS      4353 (0x1101)   0x86            DTS-HD MA       eng (English)           3285,532                1 683                   691 234 556     4 075 030
    00003.M2TS      4608 (0x1200)   0x90            PGS             rus (Russian)           3285,532                36                      14 958 114      85 304

    ********************
    PLAYLIST: 00001.MPLS
    ********************

    Total   Video
    Title                                                           Codec   Length  Movie Size      Disc Size       Bitrate Bitrate Main Audio Track                          Secondary Audio Track
    -----                                                           ------  ------- --------------  --------------  ------- ------- ------------------                        ---------------------
    00001.MPLS                                                      AVC     0:54:20 8 558 496 192   42 537 128 666  21,00   18,00   DTS-HD Master 5.1 1639Kbps (48kHz/16-bit)
    DISC INFO:

    Disc Title:     DISK-1
    Disc Size:      42 537 128 666 bytes
    Protection:     AACS
    BD-Java:        No
    BDInfo:         0.5.4

    PLAYLIST REPORT:

    Name:                   00001.MPLS
    Length:                 0:54:20 (h:m:s)
    Size:                   8 558 496 192 bytes
    Total Bitrate:          21,00 Mbps

    VIDEO:

    Codec                   Bitrate             Deion
    -----                   -------             -----------
    MPEG-4 AVC Video        18003 kbps          1080p / 23,976 fps / 16:9 / High Profile 4.1

    AUDIO:

    Codec                           Language        Bitrate         Deion
    -----                           --------        -------         -----------
    DTS-HD Master Audio             English         1639 kbps       5.1 / 48 kHz / 1639 kbps / 16-bit (DTS Core: 5.1 / 48 kHz / 768 kbps / 16-bit)
    Dolby Digital Audio             Russian         224 kbps        2.0 / 48 kHz / 224 kbps / DN -4dB

    SUBTITLES:

    Codec                           Language        Bitrate         Deion
    -----                           --------        -------         -----------
    Presentation Graphics           Russian         37,892 kbps

    FILES:

    Name            Time In         Length          Size            Total Bitrate
    ----            -------         ------          ----            -------------
    00001.M2TS      0:00:00.000     0:54:20.382     8 558 496 192   21 000

    CHAPTERS:

    Number          Time In         Length          Avg Video Rate  Max 1-Sec Rate  Max 1-Sec Time  Max 5-Sec Rate  Max 5-Sec Time  Max 10Sec Rate  Max 10Sec Time  Avg Frame Size  Max Frame Size  Max Frame Time
    ------          -------         ------          --------------  --------------  --------------  --------------  --------------  --------------  --------------  --------------  --------------  --------------
    1               0:00:00.000     0:00:09.676     14 111 kbps     25 382 kbps     00:00:07.924    19 165 kbps     00:00:03.920    0 kbps          00:00:00.000    73 252 bytes    276 623 bytes   00:00:07.966
    2               0:00:09.676     0:02:37.156     21 046 kbps     33 453 kbps     00:02:32.777    31 517 kbps     00:02:23.393    31 262 kbps     00:02:23.810    109 724 bytes   278 505 bytes   00:02:33.444
    3               0:02:46.833     0:01:44.354     17 008 kbps     24 462 kbps     00:03:09.480    20 712 kbps     00:03:40.178    20 001 kbps     00:03:40.053    88 670 bytes    220 558 bytes   00:03:31.169
    4               0:04:31.187     0:01:32.133     20 929 kbps     28 303 kbps     00:05:54.771    26 486 kbps     00:05:54.771    24 920 kbps     00:05:30.163    109 114 bytes   214 180 bytes   00:05:41.132
    5               0:06:03.321     0:05:05.847     22 224 kbps     32 198 kbps     00:09:12.176    31 150 kbps     00:09:12.176    28 801 kbps     00:09:09.549    115 865 bytes   271 619 bytes   00:10:23.039
    6               0:11:09.168     0:00:22.063     15 737 kbps     18 172 kbps     00:11:11.796    17 303 kbps     00:11:10.294    16 652 kbps     00:11:10.002    82 043 bytes    194 603 bytes   00:11:12.129
    7               0:11:31.232     0:06:59.710     14 516 kbps     29 510 kbps     00:11:35.027    26 466 kbps     00:11:32.108    22 761 kbps     00:11:32.108    75 680 bytes    270 089 bytes   00:15:24.798
    8               0:18:30.943     0:02:38.992     18 775 kbps     29 149 kbps     00:20:49.873    28 642 kbps     00:20:49.831    27 010 kbps     00:20:49.790    97 885 bytes    247 031 bytes   00:19:47.603
    9               0:21:09.935     0:03:40.428     19 142 kbps     27 466 kbps     00:21:13.313    25 547 kbps     00:22:36.229    24 135 kbps     00:24:17.873    99 797 bytes    227 084 bytes   00:22:41.193
    10              0:24:50.363     0:04:33.314     15 616 kbps     27 079 kbps     00:29:10.957    26 086 kbps     00:29:10.957    25 080 kbps     00:29:10.957    81 415 bytes    270 583 bytes   00:25:44.668
    11              0:29:23.678     0:06:18.836     19 250 kbps     35 783 kbps     00:34:18.931    32 678 kbps     00:34:18.681    30 736 kbps     00:34:15.261    100 360 bytes   259 625 bytes   00:32:05.048
    12              0:35:42.515     0:01:06.149     20 442 kbps     30 707 kbps     00:36:35.359    28 702 kbps     00:36:34.942    27 906 kbps     00:36:30.479    106 576 bytes   243 166 bytes   00:36:12.545
    13              0:36:48.664     0:00:46.629     18 364 kbps     25 060 kbps     00:37:11.687    23 576 kbps     00:37:08.017    21 759 kbps     00:37:07.391    95 744 bytes    222 459 bytes   00:36:56.631
    14              0:37:35.294     0:01:56.199     18 965 kbps     25 157 kbps     00:39:04.425    23 732 kbps     00:38:44.697    22 582 kbps     00:38:42.194    98 873 bytes    210 882 bytes   00:39:22.568
    15              0:39:31.494     0:00:43.168     20 989 kbps     29 295 kbps     00:39:48.219    25 630 kbps     00:40:09.573    23 893 kbps     00:39:42.588    109 426 bytes   198 238 bytes   00:39:48.260
    16              0:40:14.662     0:06:42.443     14 723 kbps     29 362 kbps     00:41:06.005    28 369 kbps     00:41:05.504    23 856 kbps     00:41:00.583    76 758 bytes    234 517 bytes   00:43:41.910
    17              0:46:57.105     0:02:23.476     21 980 kbps     29 749 kbps     00:48:32.326    29 206 kbps     00:48:30.616    27 367 kbps     00:48:26.445    114 593 bytes   257 489 bytes   00:48:55.932
    18              0:49:20.582     0:01:05.940     18 832 kbps     24 104 kbps     00:49:56.159    22 736 kbps     00:49:54.241    21 864 kbps     00:49:53.448    98 181 bytes    236 808 bytes   00:49:21.541
    19              0:50:26.523     0:03:53.858     16 716 kbps     30 904 kbps     00:52:48.081    29 145 kbps     00:52:47.330    27 922 kbps     00:52:47.330    87 181 bytes    253 620 bytes   00:54:09.329

    STREAM DIAGNOSTICS:

    File            PID             Type            Codec           Language                Seconds                 Bitrate                 Bytes           Packets
    ----            ---             ----            -----           --------                --------------          --------------          -------------   -----
    00001.M2TS      4113 (0x1011)   0x1B            AVC                                     3260,299                18 004                  7 337 137 599   39 922 395
    00001.M2TS      4352 (0x1100)   0x81            AC3             rus (Russian)           3260,299                224                     91 305 088      509 515
    00001.M2TS      4353 (0x1101)   0x86            DTS-HD MA       eng (English)           3260,299                1 639                   668 153 652     3 946 073
    00001.M2TS      4608 (0x1200)   0x90            PGS             rus (Russian)           3260,299                38                      15 443 002      88 254

    ********************
    PLAYLIST: 00000.MPLS
    ********************

    Total   Video
    Title                                                           Codec   Length  Movie Size      Disc Size       Bitrate Bitrate Main Audio Track                          Secondary Audio Track
    -----                                                           ------  ------- --------------  --------------  ------- ------- ------------------                        ---------------------
    00000.MPLS                                                      AVC     0:54:02 8 582 857 152   42 537 128 666  21,18   18,09   DTS-HD Master 5.1 1726Kbps (48kHz/16-bit)
    DISC INFO:

    Disc Title:     DISK-1
    Disc Size:      42 537 128 666 bytes
    Protection:     AACS
    BD-Java:        No
    BDInfo:         0.5.4

    PLAYLIST REPORT:

    Name:                   00000.MPLS
    Length:                 0:54:02 (h:m:s)
    Size:                   8 582 857 152 bytes
    Total Bitrate:          21,18 Mbps

    VIDEO:

    Codec                   Bitrate             Deion
    -----                   -------             -----------
    MPEG-4 AVC Video        18087 kbps          1080p / 23,976 fps / 16:9 / High Profile 4.1

    AUDIO:

    Codec                           Language        Bitrate         Deion
    -----                           --------        -------         -----------
    DTS-HD Master Audio             English         1726 kbps       5.1 / 48 kHz / 1726 kbps / 16-bit (DTS Core: 5.1 / 48 kHz / 768 kbps / 16-bit)
    Dolby Digital Audio             Russian         224 kbps        2.0 / 48 kHz / 224 kbps

    SUBTITLES:

    Codec                           Language        Bitrate         Deion
    -----                           --------        -------         -----------
    Presentation Graphics           Russian         38,383 kbps

    FILES:

    Name            Time In         Length          Size            Total Bitrate
    ----            -------         ------          ----            -------------
    00000.M2TS      0:00:00.000     0:54:02.239     8 582 857 152   21 177

    CHAPTERS:

    Number          Time In         Length          Avg Video Rate  Max 1-Sec Rate  Max 1-Sec Time  Max 5-Sec Rate  Max 5-Sec Time  Max 10Sec Rate  Max 10Sec Time  Avg Frame Size  Max Frame Size  Max Frame Time
    ------          -------         ------          --------------  --------------  --------------  --------------  --------------  --------------  --------------  --------------  --------------  --------------
    1               0:00:00.000     0:00:10.844     11 918 kbps     24 204 kbps     00:00:08.216    17 470 kbps     00:00:04.629    12 906 kbps     00:00:00.834    61 898 bytes    253 174 bytes   00:00:08.967
    2               0:00:10.844     0:01:07.609     19 474 kbps     25 544 kbps     00:00:40.165    22 960 kbps     00:00:30.071    21 217 kbps     00:00:26.818    101 527 bytes   199 493 bytes   00:00:40.498
    3               0:01:18.453     0:01:34.302     19 001 kbps     28 314 kbps     00:02:51.754    23 603 kbps     00:02:47.750    22 915 kbps     00:02:04.415    99 065 bytes    328 175 bytes   00:01:42.227
    4               0:02:52.755     0:00:42.208     20 583 kbps     22 839 kbps     00:03:22.035    22 186 kbps     00:03:20.867    22 037 kbps     00:03:19.115    107 308 bytes   202 870 bytes   00:02:53.089
    5               0:03:34.964     0:00:21.229     18 643 kbps     22 198 kbps     00:03:44.557    20 254 kbps     00:03:41.512    19 508 kbps     00:03:37.675    97 198 bytes    214 169 bytes   00:03:53.942
    6               0:03:56.194     0:02:53.089     18 248 kbps     26 551 kbps     00:03:56.194    21 345 kbps     00:04:11.542    20 507 kbps     00:06:05.406    95 138 bytes    206 617 bytes   00:03:57.612
    7               0:06:49.283     0:06:52.578     18 243 kbps     29 075 kbps     00:09:05.503    25 248 kbps     00:09:02.875    23 338 kbps     00:09:00.957    95 110 bytes    301 607 bytes   00:09:03.376
    8               0:13:41.862     0:00:34.993     20 617 kbps     23 261 kbps     00:14:00.422    21 620 kbps     00:14:06.136    21 440 kbps     00:14:06.845    107 488 bytes   164 093 bytes   00:14:16.814
    9               0:14:16.855     0:04:33.439     17 094 kbps     26 937 kbps     00:14:34.123    24 492 kbps     00:14:33.122    20 976 kbps     00:14:30.369    89 118 bytes    252 215 bytes   00:16:14.390
    10              0:18:50.295     0:00:16.391     16 890 kbps     20 863 kbps     00:19:05.102    17 753 kbps     00:19:01.682    17 317 kbps     00:18:56.093    88 054 bytes    170 898 bytes   00:18:51.255
    11              0:19:06.687     0:00:48.381     16 488 kbps     21 168 kbps     00:19:37.885    20 595 kbps     00:19:29.835    19 854 kbps     00:19:30.335    85 959 bytes    176 521 bytes   00:19:27.165
    12              0:19:55.068     0:01:14.157     20 713 kbps     24 959 kbps     00:20:03.827    24 360 kbps     00:19:59.823    23 889 kbps     00:19:55.068    107 988 bytes   175 701 bytes   00:20:24.222
    13              0:21:09.226     0:01:45.021     17 850 kbps     25 288 kbps     00:22:53.246    21 370 kbps     00:21:59.192    20 055 kbps     00:21:54.479    93 064 bytes    279 740 bytes   00:22:54.206
    14              0:22:54.247     0:03:42.305     20 160 kbps     28 435 kbps     00:25:17.557    27 258 kbps     00:22:54.372    27 114 kbps     00:22:56.625    105 107 bytes   305 975 bytes   00:22:59.211
    15              0:26:36.553     0:01:40.683     18 283 kbps     24 826 kbps     00:27:35.695    23 774 kbps     00:27:35.862    22 642 kbps     00:27:31.816    95 319 bytes    247 414 bytes   00:27:08.084
    16              0:28:17.237     0:03:33.880     19 067 kbps     24 178 kbps     00:28:53.356    22 115 kbps     00:28:17.237    21 651 kbps     00:30:31.704    99 408 bytes    234 271 bytes   00:29:57.754
    17              0:31:51.117     0:02:13.925     18 515 kbps     27 441 kbps     00:31:59.751    22 975 kbps     00:31:59.751    20 176 kbps     00:32:55.306    96 529 bytes    262 670 bytes   00:32:53.471
    18              0:34:05.042     0:01:26.419     17 485 kbps     23 540 kbps     00:35:07.647    21 809 kbps     00:35:04.477    20 820 kbps     00:34:59.472    91 159 bytes    179 385 bytes   00:34:42.580
    19              0:35:31.462     0:03:29.834     19 527 kbps     26 522 kbps     00:36:02.827    25 689 kbps     00:36:01.409    25 301 kbps     00:36:01.409    101 803 bytes   248 921 bytes   00:38:58.461
    20              0:39:01.297     0:02:55.675     18 495 kbps     28 035 kbps     00:39:17.646    22 212 kbps     00:40:15.663    21 993 kbps     00:39:24.570    96 424 bytes    201 488 bytes   00:39:19.315
    21              0:41:56.972     0:01:43.770     16 137 kbps     23 504 kbps     00:42:55.990    21 702 kbps     00:42:54.405    20 689 kbps     00:42:49.566    84 132 bytes    175 527 bytes   00:43:30.399
    22              0:43:40.743     0:10:21.495     16 354 kbps     25 791 kbps     00:43:55.174    25 329 kbps     00:43:55.090    23 439 kbps     00:43:51.128    85 273 bytes    262 280 bytes   00:53:48.099

    STREAM DIAGNOSTICS:

    File            PID             Type            Codec           Language                Seconds                 Bitrate                 Bytes           Packets
    ----            ---             ----            -----           --------                --------------          --------------          -------------   -----
    00000.M2TS      4113 (0x1011)   0x1B            AVC                                     3242,156                18 088                  7 330 569 192   39 886 518
    00000.M2TS      4352 (0x1100)   0x81            AC3             rus (Russian)           3242,156                224                     90 783 616      506 605
    00000.M2TS      4353 (0x1101)   0x86            DTS-HD MA       eng (English)           3242,156                1 726                   699 518 652     4 111 827
    00000.M2TS      4608 (0x1200)   0x90            PGS             rus (Russian)           3242,156                38                      15 556 138      88 796

    ********************
    PLAYLIST: 00005.MPLS
    ********************

    Total   Video
    Title                                                           Codec   Length  Movie Size      Disc Size       Bitrate Bitrate Main Audio Track                          Secondary Audio Track
    -----                                                           ------  ------- --------------  --------------  ------- ------- ------------------                        ---------------------
    00005.MPLS                                                      AVC     0:53:51 8 428 427 712   42 537 128 666  20,86   17,79   DTS-HD Master 5.1 1705Kbps (48kHz/16-bit)
    DISC INFO:

    Disc Title:     DISK-1
    Disc Size:      42 537 128 666 bytes
    Protection:     AACS
    BD-Java:        No
    BDInfo:         0.5.4

    PLAYLIST REPORT:

    Name:                   00005.MPLS
    Length:                 0:53:51 (h:m:s)
    Size:                   8 428 427 712 bytes
    Total Bitrate:          20,86 Mbps

    VIDEO:

    Codec                   Bitrate             Deion
    -----                   -------             -----------
    MPEG-4 AVC Video        17795 kbps          1080p / 23,976 fps / 16:9 / High Profile 4.1

    AUDIO:

    Codec                           Language        Bitrate         Deion
    -----                           --------        -------         -----------
    DTS-HD Master Audio             English         1705 kbps       5.1 / 48 kHz / 1705 kbps / 16-bit (DTS Core: 5.1 / 48 kHz / 768 kbps / 16-bit)
    Dolby Digital Audio             Russian         224 kbps        2.0 / 48 kHz / 224 kbps

    SUBTITLES:

    Codec                           Language        Bitrate         Deion
    -----                           --------        -------         -----------
    Presentation Graphics           Russian         53,535 kbps

    FILES:

    Name            Time In         Length          Size            Total Bitrate
    ----            -------         ------          ----            -------------
    00007.M2TS      0:00:00.000     0:53:51.853     8 428 427 712   20 863

    CHAPTERS:

    Number          Time In         Length          Avg Video Rate  Max 1-Sec Rate  Max 1-Sec Time  Max 5-Sec Rate  Max 5-Sec Time  Max 10Sec Rate  Max 10Sec Time  Avg Frame Size  Max Frame Size  Max Frame Time
    ------          -------         ------          --------------  --------------  --------------  --------------  --------------  --------------  --------------  --------------  --------------  --------------
    1               0:00:00.000     0:00:09.676     16 244 kbps     31 055 kbps     00:00:07.924    22 197 kbps     00:00:04.129    0 kbps          00:00:00.000    84 324 bytes    290 895 bytes   00:00:08.800
    2               0:00:09.676     0:01:47.607     21 479 kbps     31 664 kbps     00:01:43.019    30 072 kbps     00:01:39.557    29 176 kbps     00:01:34.552    111 983 bytes   296 592 bytes   00:00:40.999
    3               0:01:57.283     0:04:10.208     17 808 kbps     29 586 kbps     00:03:25.830    27 281 kbps     00:03:24.913    24 695 kbps     00:03:24.746    92 842 bytes    340 619 bytes   00:03:37.592
    4               0:06:07.492     0:01:11.446     18 288 kbps     29 238 kbps     00:06:16.292    26 848 kbps     00:06:12.246    25 568 kbps     00:06:09.410    95 343 bytes    307 623 bytes   00:06:23.174
    5               0:07:18.938     0:01:19.412     22 019 kbps     35 311 kbps     00:07:45.006    28 165 kbps     00:08:17.830    26 095 kbps     00:08:17.747    114 795 bytes   283 283 bytes   00:07:30.366
    6               0:08:38.351     0:05:33.249     19 507 kbps     35 379 kbps     00:08:40.436    32 885 kbps     00:08:49.070    31 668 kbps     00:09:21.894    101 700 bytes   372 737 bytes   00:09:35.283
    7               0:14:11.600     0:00:52.010     18 537 kbps     26 615 kbps     00:14:38.419    22 901 kbps     00:14:34.456    21 671 kbps     00:14:30.703    96 642 bytes    239 525 bytes   00:14:47.970
    8               0:15:03.611     0:02:19.013     15 128 kbps     25 630 kbps     00:15:41.482    20 279 kbps     00:17:01.937    18 114 kbps     00:15:32.473    78 872 bytes    292 940 bytes   00:16:13.681
    9               0:17:22.624     0:05:37.795     14 708 kbps     25 394 kbps     00:21:03.679    21 625 kbps     00:17:32.092    19 516 kbps     00:21:01.301    76 680 bytes    254 987 bytes   00:23:00.379
    10              0:23:00.420     0:08:03.399     18 765 kbps     31 705 kbps     00:23:40.085    27 577 kbps     00:23:37.082    24 968 kbps     00:23:32.077    97 833 bytes    326 796 bytes   00:31:03.778
    11              0:31:03.820     0:01:36.513     22 633 kbps     34 185 kbps     00:31:54.162    32 161 kbps     00:31:50.116    32 020 kbps     00:31:45.111    117 999 bytes   282 542 bytes   00:32:34.369
    12              0:32:40.333     0:08:21.125     17 208 kbps     29 356 kbps     00:38:50.619    26 449 kbps     00:40:35.850    24 944 kbps     00:40:31.178    89 716 bytes    366 766 bytes   00:40:40.813
    13              0:41:01.459     0:03:18.323     15 710 kbps     25 329 kbps     00:41:42.708    22 149 kbps     00:41:47.588    21 151 kbps     00:41:42.666    81 905 bytes    246 647 bytes   00:41:11.969
    14              0:44:19.782     0:03:35.381     16 805 kbps     26 141 kbps     00:45:49.788    23 030 kbps     00:45:59.381    22 556 kbps     00:45:54.376    87 615 bytes    323 727 bytes   00:47:21.046
    15              0:47:55.163     0:05:56.689     17 888 kbps     30 773 kbps     00:52:20.595    26 310 kbps     00:53:45.305    25 681 kbps     00:53:40.383    93 284 bytes    346 798 bytes   00:53:13.440

    STREAM DIAGNOSTICS:

    File            PID             Type            Codec           Language                Seconds                 Bitrate                 Bytes           Packets
    ----            ---             ----            -----           --------                --------------          --------------          -------------   -----
    00007.M2TS      4113 (0x1011)   0x1B            AVC                                     3231,770                17 795                  7 188 766 171   39 115 471
    00007.M2TS      4352 (0x1100)   0x81            AC3             rus (Russian)           3231,770                224                     90 492 416      504 980
    00007.M2TS      4353 (0x1101)   0x86            DTS-HD MA       eng (English)           3231,770                1 705                   688 754 972     4 045 847
    00007.M2TS      4608 (0x1200)   0x90            PGS             rus (Russian)           3231,770                54                      21 627 495      123 469

    ********************
    PLAYLIST: 00002.MPLS
    ********************

    Total   Video
    Title                                                           Codec   Length  Movie Size      Disc Size       Bitrate Bitrate Main Audio Track                          Secondary Audio Track
    -----                                                           ------  ------- --------------  --------------  ------- ------- ------------------                        ---------------------
    00002.MPLS                                                      AVC     0:50:17 7 927 267 776   42 537 128 666  21,02   18,00   DTS-HD Master 5.1 1644Kbps (48kHz/16-bit)
    DISC INFO:

    Disc Title:     DISK-1
    Disc Size:      42 537 128 666 bytes
    Protection:     AACS
    BD-Java:        No
    BDInfo:         0.5.4

    PLAYLIST REPORT:

    Name:                   00002.MPLS
    Length:                 0:50:17 (h:m:s)
    Size:                   7 927 267 776 bytes
    Total Bitrate:          21,02 Mbps

    VIDEO:

    Codec                   Bitrate             Deion
    -----                   -------             -----------
    MPEG-4 AVC Video        18002 kbps          1080p / 23,976 fps / 16:9 / High Profile 4.1

    AUDIO:

    Codec                           Language        Bitrate         Deion
    -----                           --------        -------         -----------
    DTS-HD Master Audio             English         1644 kbps       5.1 / 48 kHz / 1644 kbps / 16-bit (DTS Core: 5.1 / 48 kHz / 768 kbps / 16-bit)
    Dolby Digital Audio             Russian         224 kbps        2.0 / 48 kHz / 224 kbps / DN -4dB

    SUBTITLES:

    Codec                           Language        Bitrate         Deion
    -----                           --------        -------         -----------
    Presentation Graphics           Russian         41,176 kbps

    FILES:

    Name            Time In         Length          Size            Total Bitrate
    ----            -------         ------          ----            -------------
    00002.M2TS      0:00:00.000     0:50:17.639     7 927 267 776   21 016

    CHAPTERS:

    Number          Time In         Length          Avg Video Rate  Max 1-Sec Rate  Max 1-Sec Time  Max 5-Sec Rate  Max 5-Sec Time  Max 10Sec Rate  Max 10Sec Time  Avg Frame Size  Max Frame Size  Max Frame Time
    ------          -------         ------          --------------  --------------  --------------  --------------  --------------  --------------  --------------  --------------  --------------  --------------
    1               0:00:00.000     0:08:37.183     16 995 kbps     34 395 kbps     00:00:07.465    30 449 kbps     00:04:21.094    29 299 kbps     00:04:16.714    88 598 bytes    435 117 bytes   00:00:08.383
    2               0:08:37.183     0:09:25.565     15 930 kbps     42 340 kbps     00:17:51.236    37 989 kbps     00:17:47.232    34 170 kbps     00:17:42.227    83 053 bytes    336 133 bytes   00:15:47.029
    3               0:18:02.748     0:05:47.722     18 302 kbps     40 605 kbps     00:18:37.533    36 995 kbps     00:18:33.612    35 717 kbps     00:18:32.820    95 417 bytes    338 665 bytes   00:21:50.517
    4               0:23:50.470     0:10:56.822     21 097 kbps     42 997 kbps     00:26:27.210    38 681 kbps     00:27:46.039    37 555 kbps     00:26:21.246    109 988 bytes   432 198 bytes   00:27:53.671
    5               0:34:47.293     0:08:07.570     20 065 kbps     29 433 kbps     00:40:54.535    26 787 kbps     00:40:52.700    26 330 kbps     00:40:49.989    104 611 bytes   383 101 bytes   00:42:43.811
    6               0:42:54.863     0:07:22.775     14 728 kbps     23 947 kbps     00:49:37.766    18 992 kbps     00:49:34.096    17 625 kbps     00:49:29.091    76 798 bytes    367 920 bytes   00:49:38.266

    STREAM DIAGNOSTICS:

    File            PID             Type            Codec           Language                Seconds                 Bitrate                 Bytes           Packets
    ----            ---             ----            -----           --------                --------------          --------------          -------------   -----
    00002.M2TS      4113 (0x1011)   0x1B            AVC                                     3017,556                18 003                  6 790 520 397   36 948 074
    00002.M2TS      4352 (0x1100)   0x81            AC3             rus (Russian)           3017,556                224                     84 494 592      471 510
    00002.M2TS      4353 (0x1101)   0x86            DTS-HD MA       eng (English)           3017,556                1 644                   620 044 204     3 678 318
    00002.M2TS      4608 (0x1200)   0x90            PGS             rus (Russian)           3017,556                41                      15 532 093      88 858Свернуть


    BDinfo DISK-9
    Disc Title:     DISK-9
    Disc Size:      40 661 423 286 bytes
    Protection:     AACS
    BD-Java:        No
    BDInfo:         0.5.4

    Notes:

    BDINFO HOME:
    Cinema Squid
    http://www.cinemasquid.com/blu-ray/tools/bdinfo

    INCLUDES FORUMS REPORT FOR:
    AVS Forum Blu-ray Audio and Video Specifications Thread
    http://www.avsforum.com/avs-vb/showthread.php?t=1155731

    ********************
    PLAYLIST: 00000.MPLS
    ********************

    Total   Video
    Title                                                           Codec   Length  Movie Size      Disc Size       Bitrate Bitrate Main Audio Track                          Secondary Audio Track
    -----                                                           ------  ------- --------------  --------------  ------- ------- ------------------                        ---------------------
    00000.MPLS                                                      AVC     2:08:26 23 872 426 368  40 661 423 286  24,78   20,00   DTS-HD Master 5.1 1692Kbps (48kHz/16-bit) LPCM 2.0 1536Kbps (48kHz/16-bit)
    DISC INFO:

    Disc Title:     DISK-9
    Disc Size:      40 661 423 286 bytes
    Protection:     AACS
    BD-Java:        No
    BDInfo:         0.5.4

    PLAYLIST REPORT:

    Name:                   00000.MPLS
    Length:                 2:08:26 (h:m:s)
    Size:                   23 872 426 368 bytes
    Total Bitrate:          24,78 Mbps

    VIDEO:

    Codec                   Bitrate             Deion
    -----                   -------             -----------
    MPEG-4 AVC Video        20000 kbps          1080p / 23,976 fps / 16:9 / High Profile 4.1

    AUDIO:

    Codec                           Language        Bitrate         Deion
    -----                           --------        -------         -----------
    DTS-HD Master Audio             English         1692 kbps       5.1 / 48 kHz / 1692 kbps / 16-bit (DTS Core: 5.1 / 48 kHz / 768 kbps / 16-bit)
    LPCM Audio                      English         1536 kbps       2.0 / 48 kHz / 1536 kbps / 16-bit

    SUBTITLES:

    Codec                           Language        Bitrate         Deion
    -----                           --------        -------         -----------
    Presentation Graphics           English         70,463 kbps

    FILES:

    Name            Time In         Length          Size            Total Bitrate
    ----            -------         ------          ----            -------------
    00001.M2TS      0:00:00.000     2:08:26.782     23 872 426 368  24 781

    CHAPTERS:

    Number          Time In         Length          Avg Video Rate  Max 1-Sec Rate  Max 1-Sec Time  Max 5-Sec Rate  Max 5-Sec Time  Max 10Sec Rate  Max 10Sec Time  Avg Frame Size  Max Frame Size  Max Frame Time
    ------          -------         ------          --------------  --------------  --------------  --------------  --------------  --------------  --------------  --------------  --------------  --------------
    1               0:00:00.000     0:00:12.762     21 926 kbps     30 963 kbps     00:00:10.760    26 965 kbps     00:00:06.840    25 140 kbps     00:00:01.960    113 938 bytes   221 549 bytes   00:00:09.968
    2               0:00:12.762     0:25:51.758     18 605 kbps     36 148 kbps     00:23:03.382    30 835 kbps     00:22:59.419    30 397 kbps     00:24:56.536    96 998 bytes    650 269 bytes   00:23:04.383
    3               0:26:04.521     1:08:55.548     20 431 kbps     38 151 kbps     00:37:19.195    34 119 kbps     00:37:19.195    32 906 kbps     00:37:14.690    106 519 bytes   608 335 bytes   01:18:16.024
    4               1:35:00.069     0:33:26.713     20 177 kbps     44 312 kbps     01:43:16.189    39 765 kbps     01:43:12.519    37 247 kbps     01:43:12.352    105 195 bytes   658 302 bytes   01:58:41.239

    STREAM DIAGNOSTICS:

    File            PID             Type            Codec           Language                Seconds                 Bitrate                 Bytes           Packets
    ----            ---             ----            -----           --------                --------------          --------------          -------------   -----
    00001.M2TS      4113 (0x1011)   0x1B            AVC                                     7707,074                19 999                  19 266 845 411  104 821 031
    00001.M2TS      4352 (0x1100)   0x80            LPCM            eng (English)           7707,074                1 542                   1 485 860 436   9 248 094
    00001.M2TS      4353 (0x1101)   0x86            DTS-HD MA       eng (English)           7707,074                1 692                   1 630 082 132   9 626 012
    00001.M2TS      4608 (0x1200)   0x90            PGS             eng (English)           7707,074                70                      67 880 513      382 584

    ********************
    PLAYLIST: 00001.MPLS
    ********************

    Total   Video
    Title                                                           Codec   Length  Movie Size      Disc Size       Bitrate Bitrate Main Audio Track                          Secondary Audio Track
    -----                                                           ------  ------- --------------  --------------  ------- ------- ------------------                        ---------------------
    00001.MPLS                                                      AVC     1:01:19 11 097 891 264  40 661 423 286  24,13   20,00   DTS-HD Master 5.1 1083Kbps (48kHz/16-bit) LPCM 2.0 1536Kbps (48kHz/16-bit)
    DISC INFO:

    Disc Title:     DISK-9
    Disc Size:      40 661 423 286 bytes
    Protection:     AACS
    BD-Java:        No
    BDInfo:         0.5.4

    PLAYLIST REPORT:

    Name:                   00001.MPLS
    Length:                 1:01:19 (h:m:s)
    Size:                   11 097 891 264 bytes
    Total Bitrate:          24,13 Mbps

    VIDEO:

    Codec                   Bitrate             Deion
    -----                   -------             -----------
    MPEG-4 AVC Video        19998 kbps          1080p / 23,976 fps / 16:9 / High Profile 4.1

    AUDIO:

    Codec                           Language        Bitrate         Deion
    -----                           --------        -------         -----------
    DTS-HD Master Audio             English         1083 kbps       5.1 / 48 kHz / 1083 kbps / 16-bit (DTS Core: 5.1 / 48 kHz / 768 kbps / 16-bit)
    LPCM Audio                      English         1536 kbps       2.0 / 48 kHz / 1536 kbps / 16-bit

    SUBTITLES:

    Codec                           Language        Bitrate         Deion
    -----                           --------        -------         -----------
    Presentation Graphics           English         67,716 kbps

    FILES:

    Name            Time In         Length          Size            Total Bitrate
    ----            -------         ------          ----            -------------
    00036.M2TS      0:00:00.000     1:01:19.342     11 097 891 264  24 130

    CHAPTERS:

    Number          Time In         Length          Avg Video Rate  Max 1-Sec Rate  Max 1-Sec Time  Max 5-Sec Rate  Max 5-Sec Time  Max 10Sec Rate  Max 10Sec Time  Avg Frame Size  Max Frame Size  Max Frame Time
    ------          -------         ------          --------------  --------------  --------------  --------------  --------------  --------------  --------------  --------------  --------------  --------------
    1               0:00:00.000     0:00:13.012     4 101 kbps      7 749 kbps      00:00:09.801    5 505 kbps      00:00:05.922    5 015 kbps      00:00:03.002    21 312 bytes    171 201 bytes   00:00:07.966
    2               0:00:13.012     0:12:17.069     19 728 kbps     26 366 kbps     00:08:24.670    24 470 kbps     00:08:20.666    24 110 kbps     00:08:15.661    102 852 bytes   795 828 bytes   00:11:47.665
    3               0:12:30.082     0:04:06.412     17 234 kbps     31 631 kbps     00:15:06.697    31 181 kbps     00:15:05.946    30 026 kbps     00:15:04.695    89 849 bytes    654 108 bytes   00:15:17.750
    4               0:16:36.495     0:10:47.396     20 119 kbps     24 840 kbps     00:19:47.686    22 298 kbps     00:24:44.024    21 954 kbps     00:24:10.949    104 890 bytes   242 680 bytes   00:24:29.968
    5               0:27:23.892     0:05:22.989     18 032 kbps     22 139 kbps     00:29:23.011    19 965 kbps     00:31:38.438    19 752 kbps     00:31:40.398    94 012 bytes    315 437 bytes   00:27:44.996
    6               0:32:46.881     0:10:24.040     20 109 kbps     24 116 kbps     00:32:56.933    23 354 kbps     00:32:54.806    22 616 kbps     00:32:49.300    104 837 bytes   251 824 bytes   00:32:57.809
    7               0:43:10.921     0:14:30.077     22 394 kbps     29 745 kbps     00:52:08.333    26 340 kbps     00:52:07.624    25 865 kbps     00:52:05.831    116 750 bytes   428 917 bytes   00:51:50.565
    8               0:57:40.999     0:03:38.343     17 662 kbps     22 258 kbps     00:57:46.921    21 751 kbps     00:57:45.587    21 640 kbps     00:57:42.083    92 115 bytes    226 514 bytes   00:57:53.261

    STREAM DIAGNOSTICS:

    File            PID             Type            Codec           Language                Seconds                 Bitrate                 Bytes           Packets
    ----            ---             ----            -----           --------                --------------          --------------          -------------   -----
    00036.M2TS      4113 (0x1011)   0x1B            AVC                                     3679,259                19 998                  9 197 361 271   50 038 073
    00036.M2TS      4352 (0x1100)   0x80            LPCM            eng (English)           3679,259                1 542                   709 377 716     4 415 214
    00036.M2TS      4353 (0x1101)   0x86            DTS-HD MA       eng (English)           3679,259                1 084                   498 320 248     3 049 634
    00036.M2TS      4608 (0x1200)   0x90            PGS             eng (English)           3679,259                68                      31 144 274      175 341

    ********************
    PLAYLIST: 00002.MPLS
    ********************

    Total   Video
    Title                                                           Codec   Length  Movie Size      Disc Size       Bitrate Bitrate Main Audio Track                          Secondary Audio Track
    -----                                                           ------  ------- --------------  --------------  ------- ------- ------------------                        ---------------------
    00002.MPLS                                                      AVC     0:31:04 5 277 812 736   40 661 423 286  22,64   17,97   DTS-HD Master 5.1 1673Kbps (48kHz/16-bit) LPCM 2.0 1536Kbps (48kHz/16-bit)
    DISC INFO:

    Disc Title:     DISK-9
    Disc Size:      40 661 423 286 bytes
    Protection:     AACS
    BD-Java:        No
    BDInfo:         0.5.4

    PLAYLIST REPORT:

    Name:                   00002.MPLS
    Length:                 0:31:04 (h:m:s)
    Size:                   5 277 812 736 bytes
    Total Bitrate:          22,64 Mbps

    VIDEO:

    Codec                   Bitrate             Deion
    -----                   -------             -----------
    MPEG-4 AVC Video        17972 kbps          1080p / 23,976 fps / 16:9 / High Profile 4.1

    AUDIO:

    Codec                           Language        Bitrate         Deion
    -----                           --------        -------         -----------
    DTS-HD Master Audio             English         1673 kbps       5.1 / 48 kHz / 1673 kbps / 16-bit (DTS Core: 5.1 / 48 kHz / 768 kbps / 16-bit)
    LPCM Audio                      English         1536 kbps       2.0 / 48 kHz / 1536 kbps / 16-bit

    SUBTITLES:

    Codec                           Language        Bitrate         Deion
    -----                           --------        -------         -----------
    Presentation Graphics           English         71,801 kbps

    FILES:

    Name            Time In         Length          Size            Total Bitrate
    ----            -------         ------          ----            -------------
    00037.M2TS      0:00:00.000     0:31:04.862     5 277 812 736   22 641

    CHAPTERS:

    Number          Time In         Length          Avg Video Rate  Max 1-Sec Rate  Max 1-Sec Time  Max 5-Sec Rate  Max 5-Sec Time  Max 10Sec Rate  Max 10Sec Time  Avg Frame Size  Max Frame Size  Max Frame Time
    ------          -------         ------          --------------  --------------  --------------  --------------  --------------  --------------  --------------  --------------  --------------  --------------
    1               0:00:00.000     0:07:05.133     17 082 kbps     40 981 kbps     00:00:03.962    39 285 kbps     00:00:04.170    36 752 kbps     00:00:03.795    89 050 bytes    405 585 bytes   00:00:52.093
    2               0:07:05.133     0:09:35.324     19 455 kbps     40 934 kbps     00:07:05.299    37 145 kbps     00:15:24.506    35 309 kbps     00:15:24.423    101 430 bytes   391 192 bytes   00:15:39.271
    3               0:16:40.457     0:08:17.788     18 585 kbps     44 627 kbps     00:24:23.420    40 145 kbps     00:24:22.002    32 099 kbps     00:23:24.027    96 892 bytes    448 730 bytes   00:24:36.683
    4               0:24:58.246     0:06:06.616     15 847 kbps     40 593 kbps     00:30:15.939    35 292 kbps     00:30:15.438    33 103 kbps     00:30:03.468    82 627 bytes    376 948 bytes   00:30:18.900

    STREAM DIAGNOSTICS:

    File            PID             Type            Codec           Language                Seconds                 Bitrate                 Bytes           Packets
    ----            ---             ----            -----           --------                --------------          --------------          -------------   -----
    00037.M2TS      4113 (0x1011)   0x1B            AVC                                     1864,696                17 974                  4 189 510 612   22 795 223
    00037.M2TS      4352 (0x1100)   0x80            LPCM            eng (English)           1864,696                1 543                   359 545 972     2 237 838
    00037.M2TS      4353 (0x1101)   0x86            DTS-HD MA       eng (English)           1864,696                1 674                   390 091 108     2 298 707
    00037.M2TS      4608 (0x1200)   0x90            PGS             eng (English)           1864,696                72                      16 737 444      94 335Свернуть
    Инструкция по скачиванию
     1  Качаем uTorrent версии 2.0 и выше
     2  После установки, жмем выше под постером на ссылку Скачать [MediaGet] или Скачать .torrent
     3  Открываем скачанный файл через соответствующий клиент: MediaGet или uTorrent
     4  Ждем пока подключатся участники
     5  Качаем
    Комментарии о  Мир в войне / The World at War [Серии 01-35] | Blu-ray 1080p 
    Ближайшее в кино
    Вверх