• Игры для PS4
  • Игры для PS3
  • Игры для XBOX360
  • Игры для PC
  • Игры для PS2
  • Игры для PSP
  • Для телефонов
  • Музыка
  • Книги/Журналы
  • Обои
  •  
    Опрос
    Откуда Вы о нас узнали?
      0
    • От знакомых2,1,false,300,full
    • Из социальных сетей2,2,false,300,full
    • Из поисковых систем2,3,false,300,full
    • Другое2,4,false,300,full
    Статистика
    Загрузка...
    Связанные кровью / Bonded by Blood | BDRip 1080p
    Статус  Проверено
    В закладки
    Модератор: Max

    Связанные кровью / Bonded by Blood | BDRip 1080p [Фильмы 2010] скачать торрентом/torrent бесплатно

    Год выхода
    Язык
    Закачал
    Max | 06 июня 2017 в 12ч 07м 10с
    Раздел
    Отзывов
    0
    Раздают: 0 Качают: 0 Скачали: 0 Размер: 8.89 GB
    Инфо о раздаче | Благодарности |
    0/5
    0
    0 5 0
    Поддержи нас — расскажи друзьям!
    Orbitum
    Новый интернет-браузер Быстрее загружает сайты Экономит интернет—трафик Меняет оформление страницы ВК Блокирует всю рекламу на сайтах Загружает торренты как

    µTorrent

    клиент
    Объеденяет все твои чаты из соц. сетей в один Проигрывает твою музыку не заходя во ВКонтакте
    Скачать и многое другое... Подробности на сайте производителя
    Связанные кровью / Bonded By Blood

    Год выпуска: 2010
    Страна: Великобритания
    Жанр:  триллер, драма, криминал
    Продолжительность: 01:32:19
    Перевод: Любительский (многоголосый закадровый) | zamez Вячеслав (мат)

    Режиссёр: Саша Беннетт

    В ролях: Майкл Сока, Винсент Риган, Кирстон Вэрэйнг, Тамер Хассан, Нил Мэскелл, Дэйв Леджено, Люси Браун, Алекс МакКуин, Адам Дикон, Сьюзи Эми

    Описание: Эссекс, 1995. Небольшая группа мужчин господствует в местной преступной среде. Тони Такер, Патрик Тейт и Крейг Ролф известны, как самые страшные преступники всего юга Англии, поставщики наркотиков и рецидивисты. Но в мире, где верность постоянно испытывается, а большая удача - под угрозой, ваш самый близкий друг может быстро стать вашим злейшим врагом.



    Качество: BDRip 1080p
    Контейнер: MKV
    Видео: MPEG-4 AVC Video / 10.8 Mbps / 1916x800p / 25,000 fps / 16:9 / High Profile 4.1
    Аудио 1: Rus / DTS / 5.1 / 48 kHz / 1536 kbps | VO zamez Вячеслав (мат)
    Аудио 2: Eng / DTS / 5.1 / 48 kHz / 1536 kbps | Original
    Субтитры 1: Rus / SRT | Full Mokum
    Субтитры 2: Dut / SRT | Full
    Субтитры 3: Por / SRT | Full
    Субтитры 4: Est / SRT | Full
    Главы: Да

    Скриншоты
    [img]http://i94.fastpic.ru/big/2017/0606/02/96cf3eb06f19a00e8d36d17089222e02.png[/img][img]http://i94.fastpic.ru/big/2017/0606/ea/8941ec4a6acc3be52069b9d0807bc1ea.png[/img][img]http://i94.fastpic.ru/big/2017/0606/a9/35182ba7c0a8d99edc131a9004fbcda9.png[/img][img]http://i94.fastpic.ru/big/2017/0606/be/6eb8546d758a5272da5ab2d03ab4edbe.png[/img][img]http://i94.fastpic.ru/big/2017/0606/bc/f73a39a7ea43b41312d2d9efe1bb03bc.png[/img][img]http://i94.fastpic.ru/big/2017/0606/ff/54005b6fddea981f759d1e94efcb77ff.png[/img][img]http://i94.fastpic.ru/big/2017/0606/96/8211ba6b0354d1c0118a114c8409d796.png[/img][img]http://i94.fastpic.ru/big/2017/0606/1b/c70fcbb51ff398f583fb422aa537531b.png[/img]



    МедиаИнфо
    X:Bonded By Blood 2010 1xRus BDRip 1080p HDRussia.mkv
    General
    Unique ID : 174049769004676889470988977220865378310 (0x82F0C42549E1996F9EA3CA6753DA4806)
    Complete name : X:Bonded By Blood 2010 1xRus BDRip 1080p HDRussia.mkv
    Format : Matroska
    Format version : Version 4 / Version 2
    File size : 8.89 GiB
    Duration : 1h 32mn
    Overall bit rate : 13.8 Mbps
    Movie name : Bonded By Blood 2010 1xRus BDRip 1080p HDRussia
    Encoded date : UTC 2017-06-06 07:22:03
    Writing application : mkvmerge v12.0.0 ("Trust / Lust") 64bit
    Writing library : libebml v1.3.4 + libmatroska v1.4.5
    DURATION : 01:27:54.431000000
    NUMBER_OF_FRAMES : 916
    NUMBER_OF_BYTES : 46870
    _STATISTICS_WRITING_APP : mkvmerge v12.0.0 ("Trust / Lust") 64bit
    _STATISTICS_WRITING_DATE_UTC : 2017-06-06 07:22:03
    _STATISTICS_TAGS : BPS DURATION NUMBER_OF_FRAMES NUMBER_OF_BYTES
    Attachment : Yes
    Video #1
    ID : 1
    Format : AVC
    Format/Info : Advanced Video Codec
    Format profile : High@L4.1
    Format settings, CABAC : Yes
    Format settings, ReFrames : 4 frames
    Codec ID : V_MPEG4/ISO/AVC
    Duration : 1h 32mn
    Bit rate : 10.8 Mbps
    Width : 1 916 pixels
    Height : 800 pixels
    Display aspect ratio : 2.40:1
    Frame rate mode : Constant
    Frame rate : 25.000 fps
    Color space : YUV
    Chroma subsampling : 4:2:0
    Bit depth : 8 bits
    Scan type : Progressive
    Bits/(Pixel*Frame) : 0.281
    Stream size : 6.77 GiB (76%)
    Title : Bonded By Blood 2010 1xRus BDRip 1080p HDRussia
    Writing library : x264 core 104 r1713 c276662
    Encoding settings : cabac=1 / ref=4 / deblock=1:-3:-3 / analyse=0x3:0x113 / me=umh / subme=9 / psy=1 / psy_rd=1.05:0.10 / mixed_ref=1 / me_range=48 / chroma_me=1 / trellis=2 / 8x8dct=1 / cqm=0 / deadzone=21,11 / fast_pskip=0 / chroma_qp_offset=-2 / threads=12 / sliced_threads=0 / nr=0 / decimate=1 / interlaced=0 / constrained_intra=0 / bframes=6 / b_pyramid=2 / b_adapt=2 / b_bias=0 / direct=3 / weightb=1 / open_gop=0 / weightp=2 / keyint=250 / keyint_min=25 / scenecut=40 / intra_refresh=0 / rc_lookahead=60 / rc=2pass / mbtree=1 / bitrate=10777 / ratetol=1.0 / qcomp=0.70 / qpmin=10 / qpmax=51 / qpstep=4 / cplxblur=20.0 / qblur=0.5 / vbv_maxrate=40000 / vbv_bufsize=30000 / ip_ratio=1.40 / aq=1:0.90 / nal_hrd=none
    Language : English
    Default : Yes
    Forced : No
    DURATION : 01:32:15.560000000
    NUMBER_OF_FRAMES : 138389
    NUMBER_OF_BYTES : 7457142767
    _STATISTICS_WRITING_APP : mkvmerge v12.0.0 ("Trust / Lust") 64bit
    _STATISTICS_WRITING_DATE_UTC : 2017-06-06 07:22:03
    _STATISTICS_TAGS : BPS DURATION NUMBER_OF_FRAMES NUMBER_OF_BYTES
    Audio #2
    ID : 2
    Format : DTS
    Format/Info : Digital Theater Systems
    Mode : 16
    Format settings, Endianness : Big
    Codec ID : A_DTS
    Duration : 1h 32mn
    Bit rate mode : Constant
    Bit rate : 1 510 Kbps
    Channel count : 6 channels
    Channel positions : Front: L C R, Side: L R, LFE
    Sampling rate : 48.0 KHz
    Bit depth : 24 bits
    Compression mode : Lossy
    Stream size : 997 MiB (11%)
    Title : VO zamez (мат) DTS 5.1 1536
    Language : Russian
    Default : Yes
    Forced : No
    Audio #3
    ID : 3
    Format : DTS
    Format/Info : Digital Theater Systems
    Mode : 16
    Format settings, Endianness : Big
    Codec ID : A_DTS
    Duration : 1h 32mn
    Bit rate mode : Constant
    Bit rate : 1 509 Kbps
    Channel count : 6 channels
    Channel positions : Front: L C R, Side: L R, LFE
    Sampling rate : 48.0 KHz
    Bit depth : 24 bits
    Compression mode : Lossy
    Stream size : 997 MiB (11%)
    Title : Original DTS 5.1 1536
    Language : English
    Default : No
    Forced : No
    Text #4
    ID : 4
    Format : UTF-8
    Codec ID : S_TEXT/UTF8
    Codec ID/Info : UTF-8 Plain Text
    Title : Full Mokum
    Language : Russian
    Default : No
    Forced : No
    Text #5
    ID : 5
    Format : UTF-8
    Codec ID : S_TEXT/UTF8
    Codec ID/Info : UTF-8 Plain Text
    Title : Full
    Language : Dutch
    Default : No
    Forced : No
    Text #6
    ID : 6
    Format : UTF-8
    Codec ID : S_TEXT/UTF8
    Codec ID/Info : UTF-8 Plain Text
    Title : Full
    Language : Portuguese
    Default : No
    Forced : No
    Text #7
    ID : 7
    Format : UTF-8
    Codec ID : S_TEXT/UTF8
    Codec ID/Info : UTF-8 Plain Text
    Title : Full
    Language : Estonian
    Default : No
    Forced : No
    Menu
    00:00:00.000 : en:Chapter 01
    00:16:18.199 : en:Chapter 02
    00:30:56.680 : en:Chapter 03
    00:46:42.159 : en:Chapter 04
    00:59:57.199 : en:Chapter 05
    01:13:23.720 : en:Chapter 06
    Еще похожие »

    Как скачать?
    1. Качаем UTorrent версии 2.0 и выше отсюда
    2. После установки, жмем на ссылку Скачать торрент.
    3. Открываем его через utorrent.
    4. Ждем пока подключатся участники.
    5. Качаем.


    Комментарии о Связанные кровью / Bonded by Blood | BDRip 1080p
    Добавлять комментарии могут только зарегистрированные пользователи

    Зарегистрироваться или Войти


    Ближайшее в кино
    • МУЛЬТ в кино. Выпуск №80. Время открытий дата выхода 15 сентября 2018МУЛЬТ в кино. Выпуск №80. Время открытий
      Дата выхода: 15 сентября 2018
    • 40783|Трудно быть Богом|20 сентября 2018|200|300Трудно быть Богом
      Дата выхода: 20 сентября 2018
    • 463858|Лондонские поля|20 сентября 2018|200|300Лондонские поля
      Дата выхода: 20 сентября 2018
    • 991225|Проклятие монахини|20 сентября 2018|200|300Проклятие монахини
      Дата выхода: 20 сентября 2018
    • 46671|Мой друг Иван Лапшин|20 сентября 2018|200|300Мой друг Иван Лапшин
      Дата выхода: 20 сентября 2018
    • 43332|Проверка на дорогах|20 сентября 2018|200|300Проверка на дорогах
      Дата выхода: 20 сентября 2018
    • 44339|Двадцать дней без войны|20 сентября 2018|200|300Двадцать дней без войны
      Дата выхода: 20 сентября 2018
    • 1068627|Простая просьба|20 сентября 2018|200|300Простая просьба
      Дата выхода: 20 сентября 2018
    • 987695|Бои без правил|20 сентября 2018|200|300Бои без правил
      Дата выхода: 20 сентября 2018
    • 1045478|Агент Джонни Инглиш 3.0|20 сентября 2018|200|300Агент Джонни Инглиш 3.0
      Дата выхода: 20 сентября 2018
    • 1047742|Доминика|20 сентября 2018|200|300Доминика
      Дата выхода: 20 сентября 2018
    • 1031263|Храброе сердце. Заговор в королевстве|20 сентября 2018|200|300Храброе сердце. Заговор в королевстве
      Дата выхода: 20 сентября 2018
    • 1025397|Закону тут не место|20 сентября 2018|200|300Закону тут не место
      Дата выхода: 20 сентября 2018
    • 1111982|Панды 3D|20 сентября 2018|200|300Панды 3D
      Дата выхода: 20 сентября 2018
    • 1115405|Мария до Каллас|20 сентября 2018|200|300Мария до Каллас
      Дата выхода: 20 сентября 2018
    Вверх