• Игры для PS4
  • Игры для PS3
  • Игры для XBOX360
  • Игры для PC
  • Игры для PS2
  • Игры для PSP
  • Для телефонов
  • Музыка
  • Книги/Журналы
  • Обои
  •  
    Опрос
    Откуда Вы о нас узнали?
      0
    • От знакомых2,1,false,300,full
    • Из социальных сетей2,2,false,300,full
    • Из поисковых систем2,3,false,300,full
    • Другое2,4,false,300,full
    Статистика
    Загрузка...
    День патриота / Patriots Day | BDRip 720p
    Статус  Проверено
    В закладки
    Модератор: Max

    День патриота / Patriots Day | BDRip 720p [Фильмы 2016] скачать торрентом/torrent бесплатно

    Год выхода
    Язык
    Закачал
    Аноним | 06 июня 2017 в 13ч 00м 04с
    Раздел
    Отзывов
    0
    Раздают: 15 Качают: 5 Скачали: 18 Размер: 4.79 GB
    Инфо о раздаче | Благодарности |
    0/5
    0
    0 5 0
    Поддержи нас — расскажи друзьям!
    Orbitum
    Новый интернет-браузер Быстрее загружает сайты Экономит интернет—трафик Меняет оформление страницы ВК Блокирует всю рекламу на сайтах Загружает торренты как

    µTorrent

    клиент
    Объеденяет все твои чаты из соц. сетей в один Проигрывает твою музыку не заходя во ВКонтакте
    Скачать и многое другое... Подробности на сайте производителя
    Информация о фильме
    *Название: День патриота
    *Оригинальное название: Patriots Day
    *Год выхода: 2016
    *Жанр: криминал, драма, триллер
    *Режиссер: Питер Берг
    *В ролях: Мелисса Бенойст, Мишель Монахэн, Марк Уолберг, Дж.К. Симмонс, Кевин Бэйкон, Джон Гудмен, Рэйчел Броснахэн, Майкл Бич, Алекс Вулф, Лана Кондор

    О фильме:
    Фильм о трагедии Бостонского марафона 2013 года, который Голливуд экранизировал в 2016 году.
    Рассказывается история  бостонского комиссара полиции Эда Дэвиса, непосредственного участника событий и одного из главных фигурантов охоты на террористов братьев Царнаевых. В картине использована реальная хроника событий, снятая репортёрами новостной программы «60 минут», которые фиксировали все детали трагедии. Два взрыва на марафонском забеге оглушили мировую общественность, но не Эда и его коллег, которые разворачивают розыск террористов по горячим следам.



    *Выпущено: США
    *Студия: CBS Films, Closest to the Hole Productions
    *Продолжительность: 02:13:47
    *Перевод: Любительский (многоголосый закадровый) @MUZOBOZ@, авторский (одноголосый, закадровый) В.Назаров
    *Субтитры: Русские (forced), английские (full, SDH), французские (full), итальянские (full)

    Файл
    *Формат: MKV
    *Качество: BDRip 720p
    *Видео: AVC, 1280x534 (2.40:1), 23.976 fps, 3 804 Kbps (0.232 bit/pixel)
    *Аудио#1: AC-3, 48.0 KHz, 6 ch, 448 Kbps, CBR (Russian) - многоголосый @MUZOBOZ@
    *Аудио#2: AC-3, 48.0 KHz, 6 ch, 448 Kbps, CBR (Russian) - авторский В.Назаров
    *Аудио#3: AC-3, 48.0 KHz, 6 ch, 448 Kbps, CBR (English) - оригинальная звуковая дорожка

    x264 log
    x264 [info]: frame I:1381  Avg QP:15.26  size: 91682  PSNR Mean Y:47.50 U:52.69 V:52.44 Avg:48.60 Global:47.53
    x264 [info]: frame P:45431 Avg QP:18.56  size: 36078  PSNR Mean Y:45.35 U:51.17 V:51.23 Avg:46.55 Global:45.42
    x264 [info]: frame B:144734 Avg QP:20.32  size: 14022  PSNR Mean Y:44.18 U:50.82 V:50.78 Avg:45.45 Global:44.18


    MediaInfo
    Формат                                   : Matroska
    Версия формата                           : Version 2
    Размер файла                             : 4,79 Гбайт
    Продолжительность                        : 2 ч. 13 м.
    Общий поток                              : 5127 Кбит/сек
    Название фильма                          : День патриота (2016)
    Дата кодирования                         : UTC 2017-06-06 09:06:27
    Программа кодирования                    : mkvmerge v5.3.0 ("I could have danced") built on Feb  9 2012 10:38:07
    Библиотека кодирования                   : libebml v1.2.3 + libmatroska v1.3.0
    Attachments                              : poster (11).jpg

    Видео
    Идентификатор                            : 1
    Формат                                   : AVC
    Формат/Информация                        : Advanced Video Codec
    Профиль формата                          : High@L4.1
    Параметр CABAC формата                   : Да
    Параметр ReFrames формата                : 11 кадров
    Идентификатор кодека                     : V_MPEG4/ISO/AVC
    Продолжительность                        : 2 ч. 13 м.
    Битрейт                                  : 3804 Кбит/сек
    Ширина                                   : 1280 пикселей
    Высота                                   : 534 пикселя
    Соотношение сторон                       : 2,40:1
    Режим частоты кадров                     : Постоянный
    Частота кадров                           : 23,976 (24000/1001) кадра/сек
    Цветовое пространство                    : YUV
    Субдискретизация насыщенности            : 4:2:0
    Битовая глубина                          : 8 бит
    Тип развёртки                            : Прогрессивная
    Бит/(Пиксели*Кадры)                      : 0.232
    Размер потока                            : 3,44 Гбайт (72%)
    Библиотека кодирования                   : x264 core 146 r2538 121396c
    Настройки программы                      : cabac=1 / ref=11 / deblock=1:-3:-3 / analyse=0x3:0x133 / me=umh / subme=11 / psy=1 / psy_rd=1.05:0.00 / mixed_ref=1 / me_range=32 / chroma_me=1 / trellis=2 / 8x8dct=1 / cqm=0 / deadzone=21,11 / fast_pskip=0 / chroma_qp_offset=-2 / threads=12 / lookahead_threads=3 / sliced_threads=0 / nr=0 / decimate=0 / interlaced=0 / bluray_compat=0 / constrained_intra=0 / bframes=10 / b_pyramid=2 / b_adapt=2 / b_bias=0 / direct=3 / weightb=1 / open_gop=0 / weightp=2 / keyint=240 / keyint_min=23 / scenecut=40 / intra_refresh=0 / rc=2pass / mbtree=0 / bitrate=3804 / ratetol=1.0 / qcomp=0.60 / qpmin=0 / qpmax=69 / qpstep=4 / cplxblur=20.0 / qblur=0.5 / ip_ratio=1.40 / pb_ratio=1.30 / aq=1:0.80
    Язык                                     : English
    Default                                  : Да
    Forced                                   : Нет

    Аудио #1
    Идентификатор                            : 2
    Формат                                   : AC-3
    Формат/Информация                        : Audio Coding 3
    Расширение режима                        : CM (complete main)
    Параметр Endianness формата              : Big
    Идентификатор кодека                     : A_AC3
    Продолжительность                        : 2 ч. 13 м.
    Вид битрейта                             : Постоянный
    Битрейт                                  : 448 Кбит/сек
    Каналы                                   : 6 каналов
    Расположение каналов                     : Front: L C R, Side: L R, LFE
    Частота                                  : 48,0 КГц
    Частота кадров                           : 31,250 кадров/сек (1536 spf)
    Битовая глубина                          : 16 бит
    Метод сжатия                             : С потерями
    Размер потока                            : 429 Мбайт (9%)
    Заголовок                                : Многоголосый (@MUZOBOZ@)
    Язык                                     : Russian
    Default                                  : Нет
    Forced                                   : Нет
    Statistics Tags Issue                    : mkvmerge v12.0.0 ("Trust / Lust") 64bit 2017-06-05 04:43:59 / mkvmerge v5.3.0 ("I could have danced") built on Feb  9 2012 10:38:07 2017-06-06 09:06:27
    FromStats_BitRate                        : 448000
    FromStats_Duration                       : 02:13:09.088000000
    FromStats_FrameCount                     : 249659
    FromStats_StreamSize                     : 447388928

    Аудио #2
    Идентификатор                            : 3
    Формат                                   : AC-3
    Формат/Информация                        : Audio Coding 3
    Расширение режима                        : CM (complete main)
    Параметр Endianness формата              : Big
    Идентификатор кодека                     : A_AC3
    Продолжительность                        : 2 ч. 13 м.
    Вид битрейта                             : Постоянный
    Битрейт                                  : 448 Кбит/сек
    Каналы                                   : 6 каналов
    Расположение каналов                     : Front: L C R, Side: L R, LFE
    Частота                                  : 48,0 КГц
    Частота кадров                           : 31,250 кадров/сек (1536 spf)
    Битовая глубина                          : 16 бит
    Метод сжатия                             : С потерями
    Размер потока                            : 429 Мбайт (9%)
    Заголовок                                : Авторский В.Назаров
    Язык                                     : Russian
    Default                                  : Нет
    Forced                                   : Нет

    Аудио #3
    Идентификатор                            : 4
    Формат                                   : AC-3
    Формат/Информация                        : Audio Coding 3
    Расширение режима                        : CM (complete main)
    Параметр Endianness формата              : Big
    Идентификатор кодека                     : A_AC3
    Продолжительность                        : 2 ч. 13 м.
    Вид битрейта                             : Постоянный
    Битрейт                                  : 448 Кбит/сек
    Каналы                                   : 6 каналов
    Расположение каналов                     : Front: L C R, Side: L R, LFE
    Частота                                  : 48,0 КГц
    Частота кадров                           : 31,250 кадров/сек (1536 spf)
    Битовая глубина                          : 16 бит
    Метод сжатия                             : С потерями
    Размер потока                            : 429 Мбайт (9%)
    Заголовок                                : оригинал
    Язык                                     : English
    Default                                  : Нет
    Forced                                   : Нет

    Текст #1
    Идентификатор                            : 5
    Формат                                   : UTF-8
    Идентификатор кодека                     : S_TEXT/UTF8
    Идентификатор кодека/Информация          : UTF-8 Plain Text
    Заголовок                                : forced
    Язык                                     : Russian
    Default                                  : Да
    Forced                                   : Нет

    Текст #2
    Идентификатор                            : 6
    Формат                                   : UTF-8
    Идентификатор кодека                     : S_TEXT/UTF8
    Идентификатор кодека/Информация          : UTF-8 Plain Text
    Заголовок                                : full
    Язык                                     : English
    Default                                  : Нет
    Forced                                   : Нет

    Текст #3
    Идентификатор                            : 7
    Формат                                   : UTF-8
    Идентификатор кодека                     : S_TEXT/UTF8
    Идентификатор кодека/Информация          : UTF-8 Plain Text
    Заголовок                                : SDH
    Язык                                     : English
    Default                                  : Нет
    Forced                                   : Нет

    Текст #4
    Идентификатор                            : 8
    Формат                                   : UTF-8
    Идентификатор кодека                     : S_TEXT/UTF8
    Идентификатор кодека/Информация          : UTF-8 Plain Text
    Заголовок                                : SDH
    Язык                                     : English
    Default                                  : Нет
    Forced                                   : Нет

    Текст #5
    Идентификатор                            : 9
    Формат                                   : UTF-8
    Идентификатор кодека                     : S_TEXT/UTF8
    Идентификатор кодека/Информация          : UTF-8 Plain Text
    Язык                                     : French
    Default                                  : Нет
    Forced                                   : Нет

    Текст #6
    Идентификатор                            : 10
    Формат                                   : UTF-8
    Идентификатор кодека                     : S_TEXT/UTF8
    Идентификатор кодека/Информация          : UTF-8 Plain Text
    Язык                                     : Italian
    Default                                  : Нет
    Forced                                   : Нет

    Меню
    00:00:00.000                             : en:00:00:00.000
    00:08:30.510                             : en:00:08:30.510
    00:17:48.067                             : en:00:17:48.067
    00:24:56.328                             : en:00:24:56.328
    00:32:35.954                             : en:00:32:35.954
    00:41:44.502                             : en:00:41:44.502
    00:49:23.002                             : en:00:49:23.002
    00:58:35.512                             : en:00:58:35.512
    01:07:10.026                             : en:01:07:10.026
    01:19:05.157                             : en:01:19:05.157
    01:24:20.055                             : en:01:24:20.055
    01:33:48.623                             : en:01:33:48.623
    01:45:17.311                             : en:01:45:17.311
    01:50:24.618                             : en:01:50:24.618
    01:57:57.070                             : en:01:57:57.070
    02:05:25.518                             : en:02:05:25.518


    Скриншоты
    [img]http://lostpix.com/img/2017-06/04/5mt0uvekbdcuhn4zidv4z3hkt.jpg[/img][img]http://lostpix.com/img/2017-06/04/uitvcn8vmsgq3iu63jwr1ckq5.jpg[/img][img]http://lostpix.com/img/2017-06/04/s1odlwx7za5lnms5f1pathjfz.jpg[/img][img]http://lostpix.com/img/2017-06/04/262clwvcbynxlknmey1rgvw8a.jpg[/img]
    Еще похожие »

    Как скачать?
    1. Качаем UTorrent версии 2.0 и выше отсюда
    2. После установки, жмем на ссылку Скачать торрент.
    3. Открываем его через utorrent.
    4. Ждем пока подключатся участники.
    5. Качаем.


    Комментарии о День патриота / Patriots Day | BDRip 720p
    Добавлять комментарии могут только зарегистрированные пользователи

    Зарегистрироваться или Войти


    Ближайшее в кино
    • Примадонна дата выхода 18 октября 2018Примадонна
      Дата выхода: 18 октября 2018
    • 885317|Ученик чудовища|18 октября 2018|200|300Ученик чудовища
      Дата выхода: 18 октября 2018
    • 472369|Хэллоуин|18 октября 2018|200|300Хэллоуин
      Дата выхода: 18 октября 2018
    • 1005852|Дикая жизнь|18 октября 2018|200|300Дикая жизнь
      Дата выхода: 18 октября 2018
    • 696499|Галвестон|18 октября 2018|200|300Галвестон
      Дата выхода: 18 октября 2018
    • 1111886|Лукас|18 октября 2018|200|300Лукас
      Дата выхода: 18 октября 2018
    • 1045555|Вечная жизнь Александра Христофорова|18 октября 2018|200|300Вечная жизнь Александра Христофорова
      Дата выхода: 18 октября 2018
    • 1112943|Шестой пост|18 октября 2018|200|300Шестой пост
      Дата выхода: 18 октября 2018
    • 1044626|Тайна магазина игрушек|18 октября 2018|200|300Тайна магазина игрушек
      Дата выхода: 18 октября 2018
    • 629086|Лягушонок Риббит|18 октября 2018|200|300Лягушонок Риббит
      Дата выхода: 18 октября 2018
    • 991817|Закат|18 октября 2018|200|300Закат
      Дата выхода: 18 октября 2018
    • 1020860|Безупречная жизнь|18 октября 2018|200|300Безупречная жизнь
      Дата выхода: 18 октября 2018
    • 968603|Зимние братья|18 октября 2018|200|300Зимние братья
      Дата выхода: 18 октября 2018
    • 1008554|Слоны могут играть в футбол|18 октября 2018|200|300Слоны могут играть в футбол
      Дата выхода: 18 октября 2018
    • 939290|Прогулка по Риму|18 октября 2018|200|300Прогулка по Риму
      Дата выхода: 18 октября 2018
    Вверх