• Игры для PS4
  • Игры для PS3
  • Игры для XBOX360
  • Игры для PC
  • Игры для PS2
  • Игры для PSP
  • Для телефонов
  • Музыка
  • Книги / Журналы
  • Обои
  • Опрос
    Удобен ли сайт в использовании?
      0
    • Очень удобен, все понятно1,1,false,300,full
    • Удобен1,2,false,300,full
    • Средне1,3,false,300,full
    • Неудобен, трудно ориентироваться1,4,false,300,full
    • Совсем неудобен1,5,false,300,full
    Статистика
    Всего онлайн -
    Гостей -
    Пользователей -
    Короли трекера
    Благодарности () Закрыть
    Информация о фильме
    Название: Мама дарагая!
    Год выхода: 2014
    Жанр:  комедия
    Режиссер: Ярослав Чеважевский
    В ролях: Дмитрий Аверин, Нина Лощинина, Ксения Раппопорт, Марина Голуб, Игорь Яцко, Юрий Колокольников, Артур Ваха, Марина Рокина, Альберт Афонин, Юрий Симонов

    О фильме: Когда тебе двадцать два и ты живешь только по маминым правилам, самое время сказать: «С меня хватит!». Но Славику такое и в голову не придет, пока он не встретит девушку Женю. Теперь ему предстоит решать, чья любовь победит — ведь за попытку сорваться с крючка мама объявит войну. Как Славику вырасти и стать, наконец, мужчиной?! Как Жене вытащить парня из-под маминой юбки?! В этом помогут верные и опытные друзья с большим чувством юмора…



    Выпущено: Россия
    Продолжительность: 01:25:43
    Озвучивание: Оригинальное [iTunes]

    Файл
    Формат: MP4
    Качество: WEB-DLRip | КПК
    Видео: Н.264, 640x360 (16:9), 25.000 fps, 500 Kbps
    Звук: AAC LC, 48.0 KHz, 2 ch, 128 Kbps

    MI
    Общее
    Полное имя : C:UsersАлександрDesktopфильмMama.Daragay.2014.ImperiaFilm.mp4
    Формат : MPEG-4
    Профиль формата : Base Media
    Идентификатор кодека : isom (isom/avc1/iso6)
    Размер файла : 387 Мбайт
    Продолжительность : 1 ч. 25 м.
    Режим общего битрейта : Переменный
    Общий поток : 631 Кбит/сек
    Дата кодирования : UTC 2017-06-06 10:02:01
    Дата пометки : UTC 2017-06-06 10:02:01

    Видео
    Идентификатор : 1
    Формат : AVC
    Формат/Информация : Advanced Video Codec
    Профиль формата : High@L4.1
    Параметр CABAC формата : Да
    Параметр ReFrames формата : 10 кадров
    Идентификатор кодека : avc1
    Идентификатор кодека/Информация : Advanced Video Coding
    Продолжительность : 1 ч. 25 м.
    Битрейт : 500 Кбит/сек
    Максимальный битрейт : 1829 Кбит/сек
    Ширина : 640 пикселей
    Высота : 360 пикселей
    Соотношение сторон : 16:9
    Режим частоты кадров : Постоянный
    Частота кадров : 25,000 кадров/сек
    Цветовое пространство : YUV
    Субдискретизация насыщенности : 4:2:0
    Битовая глубина : 8 бит
    Тип развёртки : Прогрессивная
    Бит/(Пиксели*Кадры) : 0.087
    Размер потока : 306 Мбайт (79%)
    Заголовок : 264@GPAC0.5.2-DEV-rev248-g39d5978-master
    Библиотека кодирования : x264 core 146 r2538 121396c
    Настройки программы : cabac=1 / ref=10 / deblock=1:-3:-3 / analyse=0x3:0x113 / me=umh / subme=11 / psy=1 / psy_rd=1.00:0.00 / mixed_ref=1 / me_range=48 / chroma_me=1 / trellis=2 / 8x8dct=1 / cqm=0 / deadzone=21,11 / fast_pskip=0 / chroma_qp_offset=-2 / threads=6 / lookahead_threads=1 / sliced_threads=0 / nr=0 / decimate=0 / interlaced=0 / bluray_compat=0 / constrained_intra=0 / bframes=10 / b_pyramid=2 / b_adapt=2 / b_bias=0 / direct=3 / weightb=1 / open_gop=0 / weightp=2 / keyint=250 / keyint_min=25 / scenecut=40 / intra_refresh=0 / rc_lookahead=40 / rc=2pass / mbtree=0 / bitrate=500 / ratetol=1.0 / qcomp=0.60 / qpmin=0 / qpmax=69 / qpstep=4 / cplxblur=20.0 / qblur=0.5 / vbv_maxrate=14000 / vbv_bufsize=14000 / nal_hrd=none / filler=0 / ip_ratio=1.40 / pb_ratio=1.30 / aq=1:1.00
    Дата кодирования : UTC 2017-06-06 10:02:01
    Дата пометки : UTC 2017-06-06 10:02:18

    Аудио
    Идентификатор : 2
    Формат : AAC
    Формат/Информация : Advanced Audio Codec
    Профиль формата : LC
    Идентификатор кодека : 40
    Продолжительность : 1 ч. 25 м.
    Вид битрейта : Переменный
    Битрейт : 128 Кбит/сек
    Максимальный битрейт : 163 Кбит/сек
    Каналы : 2 канала
    Расположение каналов : Front: L R
    Частота : 48,0 КГц
    Частота кадров : 46,875 кадров/сек (1024 spf)
    Метод сжатия : С потерями
    Размер потока : 78,4 Мбайт (20%)
    Дата кодирования : UTC 2017-06-06 06:29:37
    Дата пометки : UTC 2017-06-06 10:02:18
    Свернуть


    Скриншоты
    [screen]http://i94.fastpic.ru/big/2017/0606/65/8fa354df3349af412e330e8061756165.jpg[/screen][screen]http://i96.fastpic.ru/big/2017/0606/ad/1a83044a9710671f39398137a2ee1fad.jpg[/screen][screen]http://i92.fastpic.ru/big/2017/0606/38/08039059c3adb879dc5b3fdb3d9c2538.jpg[/screen]

    [screen]http://i94.fastpic.ru/big/2017/0606/20/69af1a44937dc0f44ccf116fc9909a20.png[/screen]  [screen]http://i94.fastpic.ru/big/2017/0606/d4/40291519db4bba23c2a123dda14f2ed4.jpg[/screen][screen]http://i92.fastpic.ru/big/2017/0606/62/4adceb16fedd21dac4edf65539178662.jpg[/screen]Свернуть


    [img]http://i91.fastpic.ru/big/2017/0430/ee/411863a07f401662e4197d6d41f556ee.gif[/img][img]http://i91.fastpic.ru/big/2017/0430/f8/cb297ab242a60d92522abbf9810f00f8.gif[/img]
    Похожие раздачи Искать похожие
    Инструкция по скачиванию
     1  Качаем uTorrent версии 2.0 и выше
     2  После установки, жмем выше под постером на ссылку Скачать [MediaGet] или Скачать .torrent
     3  Открываем скачанный файл через соответствующий клиент: MediaGet или uTorrent
     4  Ждем пока подключатся участники
     5  Качаем
    Комментарии о  Мама дарагая! | WEB-DLRip 
    Ближайшее в кино
    Вверх