• Игры для PS3
  • Игры для XBOX360
  • Игры для PC
  • Игры для PS2
  • Игры для PSP
  • Для телефонов
  • Музыка
  • Книги/Журналы
  • Обои
  •  
    Опрос
    Удобен ли сайт в использовании?
      0
    • Очень удобен, все понятно1,1,false,300,full
    • Удобен1,2,false,300,full
    • Средне1,3,false,300,full
    • Неудобен, трудно ориентироваться1,4,false,300,full
    • Совсем неудобен1,5,false,300,full
    Статистика
    Загрузка...
    Автостопом по галактике / The Hitchhiker's Guide to the Galaxy | BDRip-HEVC 1080p
    Статус  Проверено
    В закладки
    Модератор: Max

    Автостопом по галактике / The Hitchhiker's Guide to the Galaxy | BDRip-HEVC 1080p [Фильмы 2005] скачать торрентом/torrent бесплатно

    Год выхода
    Язык
    Закачал
    Аноним | 06 июня 2017 в 15ч 47м 52с
    Раздел
    Отзывов
    0
    Раздают: 54 Качают: 0 Скачали: 68 Размер: 4.78 GB
    Инфо о раздаче | Благодарности |
    0/5
    0
    0 5 0
    Поддержи нас — расскажи друзьям!
    Orbitum
    Новый интернет-браузер Быстрее загружает сайты Экономит интернет—трафик Меняет оформление страницы ВК Блокирует всю рекламу на сайтах Загружает торренты как

    µTorrent

    клиент
    Объеденяет все твои чаты из соц. сетей в один Проигрывает твою музыку не заходя во ВКонтакте
    Скачать и многое другое... Подробности на сайте производителя
    Информация о фильме
    Название Автостопом по галактике
    Оригинальное название: The Hitchhiker"s Guide to the Galaxy
    Год выхода: 2005
    Жанр: фантастика, комедия, приключения
    Режиссер: Гарт Дженнингс
    В ролях: Мартин Фриман, Ясин Бей, Сэм Рокуэлл, Зои Дешанель, Билл Найи, Джон Малкович, Алан Рикман, Уорвик Дэвис, Анна Чэнселлор, Хелен Миррен

    О фильме:
    В один прекрасный день над Землей нависли огромные звездолеты инопланетян, и людям объявили, что их родная планета подлежит сносу, а на ее месте будет проложено шикарное межзвездное шоссе. Н-да, не повезло человечеству. Кроме самого заурядного парня по имени Артур Дент, старый друг и собутыльник которого Форд Префект оказался… инопланетянином!



    Страна: США, Великобритания
    Продолжительность: 01:48:46
    Перевод: Дублированный

    Файл
    Кодек: HEVC 10bit
    Качество: BDRip 1080p
    Видео: 1920x800 at 23.976 fps, x265@Main 10@L4@Main, crf, ~5265 kbps avg
    Звук:
    1: Russian: 48.0 KHz, AC-3, 3/2 (L,C,R,l,r) + LFE ch, ~384 Kbps avg | Dub
    2: English: 48.0 KHz, AC-3, 3/2 (L,C,R,l,r) + LFE ch, ~640 Kbps avg | Original
    Субтитры: Russian (Full), English (Full)



    MediaInfo

    General
    Unique ID                                : 223248630898415160916076652626316023271 (0xA7F41F50F53FD57A82BBF39DB77AD5E7)
    Complete name                            : Автостопом по галактике.2005.HEVC.mkv
    Format                                   : Matroska
    Format version                           : Version 4 / Version 2
    File size                                : 4.78 GiB
    Duration                                 : 1h 48mn
    Overall bit rate                         : 6 293 Kbps
    Movie name                               : The Hitchhiker"s Guide to the Galaxy
    Encoded date                             : UTC 2017-06-02 12:22:40
    Writing application                      : mkvmerge v9.5.0 ("Quiet Fire") 64bit
    Writing library                          : libebml v1.3.4 + libmatroska v1.4.5

    Video
    ID                                       : 1
    Format                                   : HEVC
    Format/Info                              : High Efficiency Video Coding
    Format profile                           : Main 10@L4@Main
    Codec ID                                 : V_MPEGH/ISO/HEVC
    Duration                                 : 1h 48mn
    Bit rate                                 : 5 267 Kbps
    Width                                    : 1 920 pixels
    Height                                   : 800 pixels
    Display aspect ratio                     : 2.40:1
    Frame rate mode                          : Constant
    Frame rate                               : 23.976 (24000/1001) fps
    Color space                              : YUV
    Chroma subsampling                       : 4:2:0
    Bit depth                                : 10 bits
    Bits/(Pixel*Frame)                       : 0.143
    Stream size                              : 4.00 GiB (84%)
    Title                                    : HEVC
    Writing library                          : x265 2.3+27-7e137e3ae083:[Windows][GCC 5.3.1][64 bit] 10bit
    Encoding settings                        : cpuid=1173503 / frame-threads=2 / numa-pools=4 / wpp / no-pmode / no-pme / no-psnr / no-ssim / log-level=2 / input-csp=1 / input-res=1920x800 / interlace=0 / total-frames=0 / level-idc=0 / high-tier=1 / uhd-bd=0 / ref=4 / no-allow-non-conformance / no-repeat-headers / annexb / no-aud / no-hrd / info / hash=0 / no-temporal-layers / open-gop / min-keyint=23 / keyint=250 / bframes=4 / b-adapt=2 / b-pyramid / bframe-bias=0 / rc-lookahead=30 / lookahead-slices=0 / scenecut=40 / no-intra-refresh / ctu=64 / min-cu-size=8 / no-rect / no-amp / max-tu-size=32 / tu-inter-depth=1 / tu-intra-depth=1 / limit-tu=0 / rdoq-level=2 / dynamic-rd=0.00 / signhide / no-tskip / nr-intra=0 / nr-inter=0 / no-constrained-intra / no-strong-intra-smoothing / max-merge=3 / limit-refs=0 / no-limit-modes / me=3 / subme=5 / merange=32 / temporal-mvp / weightp / weightb / no-analyze-src-pics / no-deblock / no-sao / no-sao-non-deblock / rd=4 / no-early-skip / rskip / no-fast-intra / no-tskip-fast / no-cu-lossless / no-b-intra / rdpenalty=0 / psy-rd=1.00 / psy-rdoq=1.00 / no-rd-refine / analysis-mode=0 / no-lossless / cbqpoffs=0 / crqpoffs=0 / rc=crf / crf=20.0 / qcomp=0.60 / qpstep=4 / stats-write=0 / stats-read=0 / ipratio=1.40 / pbratio=1.30 / aq-mode=1 / aq-strength=1.00 / cutree / zone-count=0 / no-strict-cbr / qg-size=32 / no-rc-grain / qpmax=69 / qpmin=0 / sar=0 / overscan=0 / videoformat=5 / range=0 / colorprim=2 / transfer=2 / colormatrix=2 / chromaloc=0 / display-window=0 / max-cll=0,0 / min-luma=0 / max-luma=1023 / log2-max-poc-lsb=8 / vui-timing-info / vui-hrd-info / slices=1 / opt-qp-pps / opt-ref-list-length-pps / no-multi-pass-opt-rps / scenecut-bias=0.05 / no-opt-cu-delta-qp / aq-motion / no-hdr / no-hdr-opt / refine-level=5
    Default                                  : Yes
    Forced                                   : No

    Audio #1
    ID                                       : 2
    Format                                   : AC-3
    Format/Info                              : Audio Coding 3
    Mode extension                           : CM (complete main)
    Format settings, Endianness              : Big
    Codec ID                                 : A_AC3
    Duration                                 : 1h 48mn
    Bit rate mode                            : Constant
    Bit rate                                 : 384 Kbps
    Channel(s)                               : 6 channels
    Channel positions                        : Front: L C R, Side: L R, LFE
    Sampling rate                            : 48.0 KHz
    Frame rate                               : 31.250 fps (1536 spf)
    Compression mode                         : Lossy
    Stream size                              : 299 MiB (6%)
    Title                                    : Dub
    Language                                 : Russian
    Default                                  : Yes
    Forced                                   : No

    Audio #2
    ID                                       : 3
    Format                                   : AC-3
    Format/Info                              : Audio Coding 3
    Mode extension                           : CM (complete main)
    Format settings, Endianness              : Big
    Codec ID                                 : A_AC3
    Duration                                 : 1h 48mn
    Bit rate mode                            : Constant
    Bit rate                                 : 640 Kbps
    Channel(s)                               : 6 channels
    Channel positions                        : Front: L C R, Side: L R, LFE
    Sampling rate                            : 48.0 KHz
    Frame rate                               : 31.250 fps (1536 spf)
    Compression mode                         : Lossy
    Stream size                              : 498 MiB (10%)
    Title                                    : Original
    Language                                 : English
    Default                                  : No
    Forced                                   : No

    Text #1
    ID                                       : 4
    Format                                   : UTF-8
    Codec ID                                 : S_TEXT/UTF8
    Codec ID/Info                            : UTF-8 Plain Text
    Duration                                 : 1h 46mn
    Bit rate                                 : 108 bps
    Count of elements                        : 1381
    Stream size                              : 84.4 KiB (0%)
    Title                                    : Full
    Language                                 : Russian
    Default                                  : No
    Forced                                   : No

    Text #2
    ID                                       : 5
    Format                                   : UTF-8
    Codec ID                                 : S_TEXT/UTF8
    Codec ID/Info                            : UTF-8 Plain Text
    Duration                                 : 1h 46mn
    Bit rate                                 : 69 bps
    Count of elements                        : 1361
    Stream size                              : 54.1 KiB (0%)
    Title                                    : Full
    Language                                 : English
    Default                                  : No
    Forced                                   : No

    Menu
    00:00:00.000                             : en:00:00:00.000
    00:03:53.232                             : en:00:03:53.232
    00:06:46.781                             : en:00:06:46.781
    00:12:57.485                             : en:00:12:57.485
    00:14:33.247                             : en:00:14:33.247
    00:18:34.696                             : en:00:18:34.696
    00:25:41.331                             : en:00:25:41.331
    00:30:17.273                             : en:00:30:17.273
    00:34:33.321                             : en:00:34:33.321
    00:40:10.950                             : en:00:40:10.950
    00:43:55.633                             : en:00:43:55.633
    00:48:41.668                             : en:00:48:41.668
    00:52:33.984                             : en:00:52:33.984
    00:56:34.766                             : en:00:56:34.766
    01:01:03.826                             : en:01:01:03.826
    01:06:15.888                             : en:01:06:15.888
    01:10:18.797                             : en:01:10:18.797
    01:14:01.979                             : en:01:14:01.979
    01:18:38.630                             : en:01:18:38.630
    01:23:06.356                             : en:01:23:06.356
    01:26:01.447                             : en:01:26:01.447
    01:30:46.315                             : en:01:30:46.315
    01:35:49.785                             : en:01:35:49.785
    01:41:53.816                             : en:01:41:53.816
    01:48:46.269                             : en:01:48:46.269



    x265

    x265 [info]: HEVC encoder version 2.3+27-7e137e3ae083
    x265 [info]: build info [Windows][GCC 5.3.1][64 bit] 10bit
    x265 [info]: using cpu capabilities: MMX2 SSE2Fast SSSE3 SSE4.2 AVX AVX2 FMA3 LZCNT BMI2
    x265 [info]: Main 10 profile, Level-4 (Main tier)
    x265 [info]: Thread pool created using 4 threads
    x265 [info]: Slices                              : 1
    x265 [info]: frame threads / pool features       : 2 / wpp(13 rows)
    x265 [info]: Coding QT: max CU size, min CU size : 64 / 8
    x265 [info]: Residual QT: max TU size, max depth : 32 / 1 inter / 1 intra
    x265 [info]: ME / range / subpel / merge         : star / 32 / 5 / 3
    x265 [info]: Keyframe min / max / scenecut / bias: 23 / 250 / 40 / 5.00
    x265 [info]: Lookahead / bframes / badapt        : 30 / 4 / 2
    x265 [info]: b-pyramid / weightp / weightb       : 1 / 1 / 1
    x265 [info]: References / ref-limit  cu / depth  : 4 / off / off
    x265 [info]: AQ: mode / str / qg-size / cu-tree  : 1 / 1.0 / 32 / 1
    x265 [info]: Rate Control / qCompress            : CRF-20.0 / 0.60
    x265 [info]: tools: rd=4 psy-rd=1.00 rdoq=2 psy-rdoq=1.00 rskip signhide tmvp
    x265 [info]: frame I:   1646, Avg QP:19.30  kb/s: 21458.61
    x265 [info]: frame P:  37249, Avg QP:20.33  kb/s: 11113.88
    x265 [info]: frame B: 117585, Avg QP:25.40  kb/s: 3186.67
    x265 [info]: Weighted P-Frames: Y:7.1% UV:5.8%
    x265 [info]: Weighted B-Frames: Y:7.1% UV:5.5%
    x265 [info]: consecutive B-frames: 7.2% 6.7% 4.1% 40.3% 41.6%

    encoded 156480 frames in 141910.50s (1.10 fps), 5265.89 kb/s, Avg QP:24.13

    Еще похожие »

    Как скачать?
    1. Качаем UTorrent версии 2.0 и выше отсюда
    2. После установки, жмем на ссылку Скачать торрент.
    3. Открываем его через utorrent.
    4. Ждем пока подключатся участники.
    5. Качаем.


    Комментарии о Автостопом по галактике / The Hitchhiker's Guide to the Galaxy | BDRip-HEVC 1080p
    Добавлять комментарии могут только зарегистрированные пользователи

    Зарегистрироваться или Войти


    Ближайшее в кино
    • Хан Соло: Звёздные Войны. Истории дата выхода 24 мая 2018Хан Соло: Звёздные Войны. Истории
      Дата выхода: 24 мая 2018
    • 719155|Секса не будет!!!|24 мая 2018|200|300Секса не будет!!!
      Дата выхода: 24 мая 2018
    • 912012|Распрекрасный принц|24 мая 2018|200|300Распрекрасный принц
      Дата выхода: 24 мая 2018
    • 1006294|Круги дьявола|24 мая 2018|200|300Круги дьявола
      Дата выхода: 24 мая 2018
    • 842709|Садко|24 мая 2018|200|300Садко
      Дата выхода: 24 мая 2018
    • 1044310|Гупёшка|24 мая 2018|200|300Гупёшка
      Дата выхода: 24 мая 2018
    • 893681|Черновик|25 мая 2018|200|300Черновик
      Дата выхода: 25 мая 2018
    • 1138771|МУЛЬТ в кино. Выпуск 76. Лето, привет!|26 мая 2018|200|300МУЛЬТ в кино. Выпуск 76. Лето, привет!
      Дата выхода: 26 мая 2018
    • 959365|Невидимый гость|31 мая 2018|200|300Невидимый гость
      Дата выхода: 31 мая 2018
    • 762500|Красный воробей|31 мая 2018|200|300Красный воробей
      Дата выхода: 31 мая 2018
    • 843121|Как разговаривать с девушками на вечеринках|31 мая 2018|200|300Как разговаривать с девушками на вечеринках
      Дата выхода: 31 мая 2018
    • 965611|Истории призраков|31 мая 2018|200|300Истории призраков
      Дата выхода: 31 мая 2018
    • 1048530|Моя жизнь|31 мая 2018|200|300Моя жизнь
      Дата выхода: 31 мая 2018
    • 1030828|Псы под прикрытием|31 мая 2018|200|300Псы под прикрытием
      Дата выхода: 31 мая 2018
    • 927822|Два хвоста|31 мая 2018|200|300Два хвоста
      Дата выхода: 31 мая 2018
    Вверх