• Игры для PS4
  • Игры для PS3
  • Игры для XBOX360
  • Игры для PC
  • Игры для PS2
  • Игры для PSP
  • Для телефонов
  • Музыка
  • Книги / Журналы
  • Обои
  • Опрос
    Откуда Вы о нас узнали?
      0
    • От знакомых2,1,false,300,full
    • Из социальных сетей2,2,false,300,full
    • Из поисковых систем2,3,false,300,full
    • Другое2,4,false,300,full
    Статистика
    Всего онлайн -
    Гостей -
    Пользователей -
    Короли трекера
    Благодарности () Закрыть
    Жанр:  драма, экранизация
    Режиссер: Теймураз Эсадзе
    Актеры: Сергей Маковецкий, Александр Балуев, Наталия Вдовина, Антон Хабаров, Глеб Пускепалис, Полина Кутепова, Ирина Латушко, Кирилл Гребенщиков, Ирина Гордина, Тимофей Трибунцев и др.

    Описание:
    В центре повествования — многодетная семья Пряслиных: мать Анна и шестеро ее детей — Михаил, Лиза, близнецы Петр и Григорий, Федор и Таня. А также председатель колхоза Анфиса Минина, фронтовик Иван Лукашин и суровый секретарь райкома Евдоким Подрезов. Весна 1942 года. В результате тяжелых поражений Советская армия продолжает отступать, оставляя хлебородные районы страны. Тяжкий труд по снабжению армии и тыла хлебом ложится на плечи женщин, стариков и подростков в отдаленных от фронта районах. Во главе северного колхоза «Новый путь» становится Анфиса Минина, простая крестьянка и бывший бригадир. В помощь ей назначается переведенный из блокадного Ленинграда раненый фронтовик Иван Лукашин. Непосильный труд и долг перед страной наполняют жизнь охваченных взаимным чувством героев.



    Производство: Россия
    Продолжительность: ~00:44:00 серия

    Качество видео: WEB-DL
    Видео: AVC/H.264, 1920x1080 (16:9), ~2706 Kbps
    Аудио: AC3, 2 ch, 192 Kbps

    Дополнительная информация
    Экранизация тетралогии Федора Абрамова.
    Эпохальная сага "Две зимы и три лета" – история нескольких поколений жителей небольшой северной деревни Пекашино на фоне истории большой страны. Действие разворачивается с 1942 по 1972 год.Свернуть


    M/I
    Общее
    Уникальный идентификатор                 : 187411964350848825804217112064503840236 (0x8CFE3B3D8D8D513CF2C28B6B60E3FDEC)
    Полное имя                               : F:Две зимы и три лета (2013).by.АлехаndrСерия 01.by.Алехаndr.mkv
    Формат                                   : Matroska
    Версия формата                           : Version 4 / Version 2
    Размер файла                             : 935 Мбайт
    Продолжительность                        : 44 м. 14 с.
    Общий поток                              : 2957 Кбит/сек
    Программа кодирования                    : Lavf57.25.100
    Библиотека кодирования                   : Lavf57.25.100

    Видео
    Идентификатор                            : 1
    Формат                                   : AVC
    Формат/Информация                        : Advanced Video Codec
    Профиль формата                          : High@L4
    Параметр CABAC формата                   : Да
    Параметр ReFrames формата                : 3 кадра
    Идентификатор кодека                     : V_MPEG4/ISO/AVC
    Продолжительность                        : 44 м. 14 с.
    Битрейт                                  : 2706 Кбит/сек
    Ширина                                   : 1920 пикселей
    Высота                                   : 1080 пикселей
    Соотношение сторон                       : 16:9
    Режим частоты кадров                     : Постоянный
    Частота кадров                           : 25,000 кадров/сек
    Цветовое пространство                    : YUV
    Субдискретизация насыщенности            : 4:2:0
    Битовая глубина                          : 8 бит
    Тип развёртки                            : Прогрессивная
    Бит/(Пиксели*Кадры)                      : 0.052
    Размер потока                            : 856 Мбайт (92%)
    Default                                  : Да
    Forced                                   : Нет
    Цветовой диапазон                        : Limited
    Основные цвета                           : BT.709
    Характеристики трансфера                 : BT.709
    Коэффициенты матрицы                     : BT.709
    DURATION                                 : 00:44:14.120000000

    Аудио
    Идентификатор                            : 2
    Формат                                   : AC-3
    Формат/Информация                        : Audio Coding 3
    Параметр Endianness формата              : Big
    Идентификатор кодека                     : A_AC3
    Продолжительность                        : 44 м. 14 с.
    Вид битрейта                             : Постоянный
    Битрейт                                  : 192 Кбит/сек
    Каналы                                   : 2 канала
    Расположение каналов                     : Front: L R
    Частота                                  : 44,1 КГц
    Частота кадров                           : 28,711 кадров/сек (1536 spf)
    Битовая глубина                          : 16 бит
    Метод сжатия                             : С потерями
    Задержка видео                           : -40 мс.
    Размер потока                            : 60,7 Мбайт (6%)
    Язык                                     : unknown
    ServiceKind/Str.ing                       : Complete Main
    Default                                  : Да
    Forced                                   : Нет
    DURATION                                 : 00:44:14.110000000Свернуть


    Похожие раздачи Искать похожие
    Инструкция по скачиванию
     1  Качаем uTorrent версии 2.0 и выше
     2  После установки, жмем выше под постером на ссылку Скачать [MediaGet] или Скачать .torrent
     3  Открываем скачанный файл через соответствующий клиент: MediaGet или uTorrent
     4  Ждем пока подключатся участники
     5  Качаем
    Комментарии о  Две зимы и три лета [Серии 01-26 из 26] | WEB-DL 1080p 
    Ближайшее в кино
    Вверх