• Игры для PS4
  • Игры для PS3
  • Игры для XBOX360
  • Игры для PC
  • Игры для PS2
  • Игры для PSP
  • Для телефонов
  • Музыка
  • Книги/Журналы
  • Обои
  •  
    Опрос
    Откуда Вы о нас узнали?
      0
    • От знакомых2,1,false,300,full
    • Из социальных сетей2,2,false,300,full
    • Из поисковых систем2,3,false,300,full
    • Другое2,4,false,300,full
    Статистика
    Загрузка...
    Мальчишник в Новом Орлеане / Mardi Gras: Spring Break | WEB-DLRip
    Статус  Проверено
    В закладки
    Модератор: Max

    Мальчишник в Новом Орлеане / Mardi Gras: Spring Break | WEB-DLRip [Фильмы 2011] скачать торрентом/torrent бесплатно

    Год выхода
    Категории
    Язык
    Закачал
    Max | 06 июня 2017 в 17ч 04м 22с
    Раздел
    Отзывов
    0
    Раздают: 1 Качают: 0 Скачали: 1 Размер: 397.07 MB
    Инфо о раздаче | Благодарности |
    0/5
    0
    0 5 0
    Поддержи нас — расскажи друзьям!
    Orbitum
    Новый интернет-браузер Быстрее загружает сайты Экономит интернет—трафик Меняет оформление страницы ВК Блокирует всю рекламу на сайтах Загружает торренты как

    µTorrent

    клиент
    Объеденяет все твои чаты из соц. сетей в один Проигрывает твою музыку не заходя во ВКонтакте
    Скачать и многое другое... Подробности на сайте производителя
    Информация о фильме
    Название: Мальчишник в Новом Орлеане
    Оригинальное название: Mardi Gras: Spring Break
    Год выхода: 2011
    Жанр:  комедия
    Режиссер: Фил Дорнфелд
    В ролях: Дэннил Эклс, Ариэль Кеббел, Николас Д’Агосто, Кармен Электра, Реджина Холл, Джош Гад, Стефани Онор, Ребекка О’Донахью, Марселль Баэр, Гэри Граббс

    О фильме: Марди Гра — международный аналог Масленицы. Празднования проходят во всем мире, но самые пышные, массовые и знаменитые по праву принадлежат Новому Орлеану. Именно туда и отправляется группа приятелей из колледжа.



    Выпущено: США / Beacon Pictures
    Продолжительность: 01:27:54
    Озвучивание: Профессиональное (многоголосое) [Лицензия]

    Файл
    Формат: MP4
    Качество: WEB-DLRip | КПК
    Видео: Н.264, 640x360 (16:9), 24.000 fps, 500 Kbps
    Звук: AAC LC, 48.0 KHz, 2 ch, 128 Kbps

    MI
    Общее
    Полное имя : C:UsersАлександрDesktopфильмMalchishnik.v.Novom.Orleane.2011.ImperiaFilm.mp4
    Формат : MPEG-4
    Профиль формата : Base Media
    Идентификатор кодека : isom (isom/avc1/iso6)
    Размер файла : 397 Мбайт
    Продолжительность : 1 ч. 27 м.
    Режим общего битрейта : Переменный
    Общий поток : 631 Кбит/сек
    Дата кодирования : UTC 2017-06-06 13:30:33
    Дата пометки : UTC 2017-06-06 13:30:33

    Видео
    Идентификатор : 1
    Формат : AVC
    Формат/Информация : Advanced Video Codec
    Профиль формата : High@L4.1
    Параметр CABAC формата : Да
    Параметр ReFrames формата : 10 кадров
    Идентификатор кодека : avc1
    Идентификатор кодека/Информация : Advanced Video Coding
    Продолжительность : 1 ч. 27 м.
    Битрейт : 500 Кбит/сек
    Максимальный битрейт : 1322 Кбит/сек
    Ширина : 640 пикселей
    Высота : 360 пикселей
    Соотношение сторон : 16:9
    Режим частоты кадров : Постоянный
    Частота кадров : 24,000 кадра/сек
    Цветовое пространство : YUV
    Субдискретизация насыщенности : 4:2:0
    Битовая глубина : 8 бит
    Тип развёртки : Прогрессивная
    Бит/(Пиксели*Кадры) : 0.090
    Размер потока : 314 Мбайт (79%)
    Заголовок : 264@GPAC0.5.2-DEV-rev248-g39d5978-master
    Библиотека кодирования : x264 core 146 r2538 121396c
    Настройки программы : cabac=1 / ref=10 / deblock=1:-3:-3 / analyse=0x3:0x113 / me=umh / subme=11 / psy=1 / psy_rd=1.00:0.00 / mixed_ref=1 / me_range=48 / chroma_me=1 / trellis=2 / 8x8dct=1 / cqm=0 / deadzone=21,11 / fast_pskip=0 / chroma_qp_offset=-2 / threads=6 / lookahead_threads=1 / sliced_threads=0 / nr=0 / decimate=0 / interlaced=0 / bluray_compat=0 / constrained_intra=0 / bframes=10 / b_pyramid=2 / b_adapt=2 / b_bias=0 / direct=3 / weightb=1 / open_gop=0 / weightp=2 / keyint=240 / keyint_min=24 / scenecut=40 / intra_refresh=0 / rc_lookahead=40 / rc=2pass / mbtree=0 / bitrate=500 / ratetol=1.0 / qcomp=0.60 / qpmin=0 / qpmax=69 / qpstep=4 / cplxblur=20.0 / qblur=0.5 / vbv_maxrate=14000 / vbv_bufsize=14000 / nal_hrd=none / filler=0 / ip_ratio=1.40 / pb_ratio=1.30 / aq=1:1.00
    Дата кодирования : UTC 2017-06-06 13:30:33
    Дата пометки : UTC 2017-06-06 13:30:48

    Аудио
    Идентификатор : 2
    Формат : AAC
    Формат/Информация : Advanced Audio Codec
    Профиль формата : LC
    Идентификатор кодека : 40
    Продолжительность : 1 ч. 27 м.
    Вид битрейта : Переменный
    Битрейт : 128 Кбит/сек
    Максимальный битрейт : 181 Кбит/сек
    Каналы : 2 канала
    Расположение каналов : Front: L R
    Частота : 48,0 КГц
    Частота кадров : 46,875 кадров/сек (1024 spf)
    Метод сжатия : С потерями
    Размер потока : 80,5 Мбайт (20%)
    Дата кодирования : UTC 2017-06-06 10:12:42
    Дата пометки : UTC 2017-06-06 13:30:48


    Скриншоты
    [img]http://i95.fastpic.ru/big/2017/0606/be/cf3a18e9b8dd504ae000831dc4d5eebe.jpg[/img][img]http://i93.fastpic.ru/big/2017/0606/e9/479dda2522a3df9671287e211621c8e9.jpg[/img][img]http://i93.fastpic.ru/big/2017/0606/09/7dd4c8ebb5bef2ec262ca90fb5dda109.jpg[/img]

    [img]http://i92.fastpic.ru/big/2017/0606/5a/0ce5433838243d21104bdaf7143f8f5a.jpg[/img][img]http://i95.fastpic.ru/big/2017/0606/29/1f4b6ba97bc90ca6055e544a1ca7e929.jpg[/img][img]http://i92.fastpic.ru/big/2017/0606/6f/e259adb106d59f50659063b0ce8e686f.jpg[/img]


    [img]http://i91.fastpic.ru/big/2017/0430/ee/411863a07f401662e4197d6d41f556ee.gif[/img][img]http://i91.fastpic.ru/big/2017/0430/f8/cb297ab242a60d92522abbf9810f00f8.gif[/img]
    Еще похожие »

    Как скачать?
    1. Качаем UTorrent версии 2.0 и выше отсюда
    2. После установки, жмем на ссылку Скачать торрент.
    3. Открываем его через utorrent.
    4. Ждем пока подключатся участники.
    5. Качаем.


    Комментарии о Мальчишник в Новом Орлеане / Mardi Gras: Spring Break | WEB-DLRip
    Добавлять комментарии могут только зарегистрированные пользователи

    Зарегистрироваться или Войти


    Ближайшее в кино
    • Короткие волны дата выхода 22 октября 2018Короткие волны
      Дата выхода: 22 октября 2018
    • 1189810|Смешная девчонка|24 октября 2018|200|300Смешная девчонка
      Дата выхода: 24 октября 2018
    • 843790|Репродукция|25 октября 2018|200|300Репродукция
      Дата выхода: 25 октября 2018
    • 782103|Только не они|25 октября 2018|200|300Только не они
      Дата выхода: 25 октября 2018
    • 1007496|Несокрушимый|25 октября 2018|200|300Несокрушимый
      Дата выхода: 25 октября 2018
    • 1101939|На границе миров|25 октября 2018|200|300На границе миров
      Дата выхода: 25 октября 2018
    • 898875|Кукловод|25 октября 2018|200|300Кукловод
      Дата выхода: 25 октября 2018
    • 1176159|Человек, который удивил всех|25 октября 2018|200|300Человек, который удивил всех
      Дата выхода: 25 октября 2018
    • 1049082|Ведьмы|25 октября 2018|200|300Ведьмы
      Дата выхода: 25 октября 2018
    • 1182699|Лоро|25 октября 2018|200|300Лоро
      Дата выхода: 25 октября 2018
    • 1032308|Как прогулять школу с пользой|25 октября 2018|200|300Как прогулять школу с пользой
      Дата выхода: 25 октября 2018
    • 1118074|Два билета домой|25 октября 2018|200|300Два билета домой
      Дата выхода: 25 октября 2018
    • 1200028|МУЛЬТ в кино. Выпуск №83. В центре внимания!|27 октября 2018|200|300МУЛЬТ в кино. Выпуск №83. В центре внимания!
      Дата выхода: 27 октября 2018
    • 568289|Богемская рапсодия|1 ноября 2018|200|300Богемская рапсодия
      Дата выхода: 1 ноября 2018
    • 589787|Хантер Киллер|1 ноября 2018|200|300Хантер Киллер
      Дата выхода: 1 ноября 2018
    Вверх