• Игры для PS4
  • Игры для PS3
  • Игры для XBOX360
  • Игры для PC
  • Игры для PS2
  • Игры для PSP
  • Для телефонов
  • Музыка
  • Книги/Журналы
  • Обои
  •  
    Опрос
    Откуда Вы о нас узнали?
      0
    • От знакомых2,1,false,300,full
    • Из социальных сетей2,2,false,300,full
    • Из поисковых систем2,3,false,300,full
    • Другое2,4,false,300,full
    Статистика
    Загрузка...
    Времена года / Les saisons | BDRip 720p
    Статус  Проверено
    В закладки
    Модератор: Max

    Времена года / Les saisons | BDRip 720p [Фильмы 2015] скачать торрентом/torrent бесплатно

    Год выхода
    Категории
    Язык
    Закачал
    Max | 06 июня 2017 в 20ч 07м 20с
    Раздел
    Отзывов
    0
    Раздают: 4 Качают: 6 Скачали: 4 Размер: 4.8 GB
    Инфо о раздаче | Благодарности |
    0/5
    0
    0 5 0
    Поддержи нас — расскажи друзьям!
    Orbitum
    Новый интернет-браузер Быстрее загружает сайты Экономит интернет—трафик Меняет оформление страницы ВК Блокирует всю рекламу на сайтах Загружает торренты как

    µTorrent

    клиент
    Объеденяет все твои чаты из соц. сетей в один Проигрывает твою музыку не заходя во ВКонтакте
    Скачать и многое другое... Подробности на сайте производителя
    Русское название: Времена года
    Оригинальное название: Les saisons
    Год выпуска: 2015
    Жанр: документальный
    Выпущено: Франция, Германия
    Режиссер: Жак Перрен, Жак Клюзо
    Перевод: Авторский одноголосый, Любительский одноголосый


    Сюжет фильма:
    Из-под небес, где парят птицы, и из глубин океана, где обитают киты и гигантские рогатые скаты, мастера документалистики Жак Перрен и Жак Клюзо (режиссеры «Птицы» и «Океаны») вышли на берег, чтобы представить свой новый фильм. Они увлекают зрителя в путешествие во времени, в европейские ландшафты, какими они были 20 000 лет назад, когда в последний Ледниковый период человек заселял их бок о бок с дикими зверьми. Ледниковый период, зима, длившаяся 80 000 лет, завершилась очень интересным этапом, когда относительно быстро весь континент покрылся безмерным и бескрайним доисторическим лесом. Новая конфигурация планет привела к появлению времен года, ландшафт претерпел метаморфозы, развились флора и фауна.



    Качество: BDRip 720p
    Формат: AVC  (библиотека кодирования x.264)
    Контейнер (Расширение): MKV
    Видео: 1280x534, 5237 Кбит/сек, 24 кадр/сек, 0,319 Бит/[Пиксели*Кадры]
    Аудио №1: русский / AC3 / 5.1 / 48 kHz / 640 kbps / |Авторский одноголосый, Ю.Сербин|
    Аудио №2: русский / AC3 / 5.1 / 48 kHz / 640 kbps / |Любительский одноголосый, Ю.Онищенко|
    Аудио №3: французский / AC3 / 5.1 / 48 kHz / 640 kbps /
    Субтитры: русские (Ю.Онищенко), русские ((SDH, DeTorquemada)), French (SDH)
    Навигация по главам(Чаптеры): есть
    Продолжительность: 01:36:02

    MediaInfo


    Format                                   : Matroska
    Format version                           : Version 2
    File size                                : 4.80 GiB
    Duration                                 : 1 h 36 min
    Overall bit rate                         : 7 152 kb/s
    Movie name                               : Les Saisons.(2015).BDRip.720p.[denis100]
    Encoded date                             : UTC 2017-06-06 16:26:02
    Writing application                      : mkvmerge v5.8.0 ("No Sleep / Pillow") built on Sep  2 2012 15:37:04
    Writing library                          : libebml v1.2.3 + libmatroska v1.3.0

    Video
    ID                                       : 1
    Format                                   : AVC
    Format/Info                              : Advanced Video Codec
    Format profile                           : High@L4.1
    Format settings, CABAC                   : Yes
    Format settings, ReFrames                : 11 frames
    Codec ID                                 : V_MPEG4/ISO/AVC
    Duration                                 : 1 h 36 min
    Bit rate                                 : 5 237 kb/s
    Width                                    : 1 280 pixels
    Height                                   : 534 pixels
    Display aspect ratio                     : 2.40:1
    Frame rate mode                          : Constant
    Frame rate                               : 24.000 FPS
    Color space                              : YUV
    Chroma subsampling                       : 4:2:0
    Bit depth                                : 8 bits
    Scan type                                : Progressive
    Bits/(Pixel*Frame)                       : 0.319
    Stream size                              : 3.41 GiB (71%)
    Title                                    : Les Saisons.(2015).BDRip.720p.[denis100]
    Writing library                          : x264 core 150 r2833 df79067
    Encoding settings                        : cabac=1 / ref=11 / deblock=1:-3:-3 / analyse=0x3:0x133 / me=umh / subme=11 / psy=1 / psy_rd=1.00:0.00 / mixed_ref=1 / me_range=32 / chroma_me=1 / trellis=2 / 8x8dct=1 / cqm=0 / deadzone=21,11 / fast_pskip=0 / chroma_qp_offset=-2 / threads=6 / lookahead_threads=1 / sliced_threads=0 / nr=0 / decimate=1 / interlaced=0 / bluray_compat=0 / constrained_intra=0 / bframes=10 / b_pyramid=2 / b_adapt=2 / b_bias=0 / direct=3 / weightb=1 / open_gop=0 / weightp=2 / keyint=240 / keyint_min=24 / scenecut=40 / intra_refresh=0 / rc=2pass / mbtree=0 / bitrate=5237 / ratetol=1.0 / qcomp=0.60 / qpmin=0 / qpmax=69 / qpstep=4 / cplxblur=20.0 / qblur=0.5 / ip_ratio=1.40 / pb_ratio=1.30 / aq=1:0.95
    Language                                 : English
    Default                                  : Yes
    Forced                                   : No

    Audio #1
    ID                                       : 2
    Format                                   : AC-3
    Format/Info                              : Audio Coding 3
    Mode extension                           : CM (complete main)
    Format settings, Endianness              : Big
    Codec ID                                 : A_AC3
    Duration                                 : 1 h 36 min
    Bit rate mode                            : Constant
    Bit rate                                 : 640 kb/s
    Channel(s)                               : 6 channels
    Channel positions                        : Front: L C R, Side: L R, LFE
    Sampling rate                            : 48.0 kHz
    Frame rate                               : 31.250 FPS (1536 spf)
    Compression mode                         : Lossy
    Stream size                              : 440 MiB (9%)
    Title                                    : AVO, Ю.Сербин
    Language                                 : Russian
    Default                                  : Yes
    Forced                                   : No

    Audio #2
    ID                                       : 3
    Format                                   : AC-3
    Format/Info                              : Audio Coding 3
    Mode extension                           : CM (complete main)
    Format settings, Endianness              : Big
    Codec ID                                 : A_AC3
    Duration                                 : 1 h 36 min
    Bit rate mode                            : Constant
    Bit rate                                 : 640 kb/s
    Channel(s)                               : 6 channels
    Channel positions                        : Front: L C R, Side: L R, LFE
    Sampling rate                            : 48.0 kHz
    Frame rate                               : 31.250 FPS (1536 spf)
    Compression mode                         : Lossy
    Stream size                              : 440 MiB (9%)
    Title                                    : VO (Ю.Онищенко)
    Language                                 : Russian
    Default                                  : No
    Forced                                   : No

    Audio #3
    ID                                       : 4
    Format                                   : AC-3
    Format/Info                              : Audio Coding 3
    Mode extension                           : CM (complete main)
    Format settings, Endianness              : Big
    Codec ID                                 : A_AC3
    Duration                                 : 1 h 36 min
    Bit rate mode                            : Constant
    Bit rate                                 : 640 kb/s
    Channel(s)                               : 6 channels
    Channel positions                        : Front: L C R, Side: L R, LFE
    Sampling rate                            : 48.0 kHz
    Frame rate                               : 31.250 FPS (1536 spf)
    Compression mode                         : Lossy
    Stream size                              : 440 MiB (9%)
    Language                                 : French
    Default                                  : No
    Forced                                   : No

    Text #1
    ID                                       : 5
    Format                                   : UTF-8
    Codec ID                                 : S_TEXT/UTF8
    Codec ID/Info                            : UTF-8 Plain Text
    Title                                    : Ю.Онищенко
    Language                                 : Russian
    Default                                  : No
    Forced                                   : No

    Text #2
    ID                                       : 6
    Format                                   : UTF-8
    Codec ID                                 : S_TEXT/UTF8
    Codec ID/Info                            : UTF-8 Plain Text
    Title                                    : (SDH, DeTorquemada)
    Language                                 : Russian
    Default                                  : No
    Forced                                   : No

    Text #3
    ID                                       : 7
    Format                                   : UTF-8
    Codec ID                                 : S_TEXT/UTF8
    Codec ID/Info                            : UTF-8 Plain Text
    Title                                    : SDH
    Language                                 : French
    Default                                  : No
    Forced                                   : No

    Menu
    00:00:00.000                             : en:00:00:00.000
    00:07:30.333                             : en:00:07:30.333
    00:13:42.125                             : en:00:13:42.125
    00:19:33.708                             : en:00:19:33.708
    00:23:26.333                             : en:00:23:26.333
    00:27:51.833                             : en:00:27:51.833
    00:31:46.667                             : en:00:31:46.667
    00:34:40.375                             : en:00:34:40.375
    00:45:00.250                             : en:00:45:00.250
    00:52:30.417                             : en:00:52:30.417
    00:57:21.458                             : en:00:57:21.458
    01:04:54.000                             : en:01:04:54.000
    01:11:41.875                             : en:01:11:41.875
    01:18:22.708                             : en:01:18:22.708
    01:23:23.208                             : en:01:23:23.208
    01:29:17.125                             : en:01:29:17.125



    x264

    x264 [info]: frame I:1087  Avg QP:14.74  size:169862
    x264 [info]: frame P:38234 Avg QP:17.53  size: 48213
    x264 [info]: frame B:98968 Avg QP:18.98  size: 17567


    Скриншоты
    [img]http://i1.imageban.ru/out/2017/06/06/1b3cb274a7d444d15971941b0e9999d2.png[/img][img]http://i2.imageban.ru/out/2017/06/06/d0c2c450703b910e82a393607595fda7.png[/img][img]http://i2.imageban.ru/out/2017/06/06/fea08461f8e7567b1db0ebd148190381.png[/img][img]http://i6.imageban.ru/out/2017/06/06/76529e1c478ac391753b74ffaf872ca9.png[/img]
    Еще похожие »

    Как скачать?
    1. Качаем UTorrent версии 2.0 и выше отсюда
    2. После установки, жмем на ссылку Скачать торрент.
    3. Открываем его через utorrent.
    4. Ждем пока подключатся участники.
    5. Качаем.


    Комментарии о Времена года / Les saisons | BDRip 720p
    Добавлять комментарии могут только зарегистрированные пользователи

    Зарегистрироваться или Войти


    Ближайшее в кино
    • Примадонна дата выхода 18 октября 2018Примадонна
      Дата выхода: 18 октября 2018
    • 885317|Ученик чудовища|18 октября 2018|200|300Ученик чудовища
      Дата выхода: 18 октября 2018
    • 472369|Хэллоуин|18 октября 2018|200|300Хэллоуин
      Дата выхода: 18 октября 2018
    • 1005852|Дикая жизнь|18 октября 2018|200|300Дикая жизнь
      Дата выхода: 18 октября 2018
    • 696499|Галвестон|18 октября 2018|200|300Галвестон
      Дата выхода: 18 октября 2018
    • 1111886|Лукас|18 октября 2018|200|300Лукас
      Дата выхода: 18 октября 2018
    • 1045555|Вечная жизнь Александра Христофорова|18 октября 2018|200|300Вечная жизнь Александра Христофорова
      Дата выхода: 18 октября 2018
    • 1112943|Шестой пост|18 октября 2018|200|300Шестой пост
      Дата выхода: 18 октября 2018
    • 1044626|Тайна магазина игрушек|18 октября 2018|200|300Тайна магазина игрушек
      Дата выхода: 18 октября 2018
    • 629086|Лягушонок Риббит|18 октября 2018|200|300Лягушонок Риббит
      Дата выхода: 18 октября 2018
    • 991817|Закат|18 октября 2018|200|300Закат
      Дата выхода: 18 октября 2018
    • 1020860|Безупречная жизнь|18 октября 2018|200|300Безупречная жизнь
      Дата выхода: 18 октября 2018
    • 968603|Зимние братья|18 октября 2018|200|300Зимние братья
      Дата выхода: 18 октября 2018
    • 1008554|Слоны могут играть в футбол|18 октября 2018|200|300Слоны могут играть в футбол
      Дата выхода: 18 октября 2018
    • 939290|Прогулка по Риму|18 октября 2018|200|300Прогулка по Риму
      Дата выхода: 18 октября 2018
    Вверх