• Игры для PS4
  • Игры для PS3
  • Игры для XBOX360
  • Игры для PC
  • Игры для PS2
  • Игры для PSP
  • Для телефонов
  • Музыка
  • Книги / Журналы
  • Обои
  • Опрос
    Удобен ли сайт в использовании?
      0
    • Очень удобен, все понятно1,1,false,300,full
    • Удобен1,2,false,300,full
    • Средне1,3,false,300,full
    • Неудобен, трудно ориентироваться1,4,false,300,full
    • Совсем неудобен1,5,false,300,full
    Статистика
    Всего онлайн -
    Гостей -
    Пользователей -
    Короли трекера
    Благодарности () Закрыть
    Информация о фильме
    Название: Девочки против мальчиков
    Оригинальное название: Girls Against Boys
    Год выхода: 2012
    Жанр:  триллер, драма
    Режиссер: Остин Чик
    В ролях: Даниэль Панабэйкер, Николь Лалиберт, Лиам Эйкен, Майкл Сталь-Дэвид, Мэттью Раух, Каролин Лагерфельт, Рейна Де Корси, Эндрю Ховард, Марло Маррон, Софи Перез

    О фильме:
    Психологический триллер о двух девушках, которые убивают парней ради морального удовлетворения. Изощренно убивая своих бывших обидчиков, они погружаются в глубокую яму, выхода из которой просто нет.



    Страна: США
    Студия: Floren Shieh Productions
    Продолжительность: 01:33:05
    Перевод: Любительский одноголосый, закадровый [den904]

    Файл
    Формат: MP4
    Качество: HDRip | КПК
    Видео: Н.264, 640x360 (16:9), 24.000 fps, 500 Kbps
    Звук: AAC LC, 48.0 KHz, 2 ch, 127 Kbps

    MI
    Общее
    Полное имя : C:UsersАлександрDesktopфильмGirls Against Boys.ImperiaFilm.mp4
    Формат : MPEG-4
    Профиль формата : Base Media
    Идентификатор кодека : isom (isom/avc1/iso6)
    Размер файла : 419 Мбайт
    Продолжительность : 1 ч. 33 м.
    Режим общего битрейта : Переменный
    Общий поток : 629 Кбит/сек
    Дата кодирования : UTC 2017-06-06 22:15:38
    Дата пометки : UTC 2017-06-06 22:15:38

    Видео
    Идентификатор : 1
    Формат : AVC
    Формат/Информация : Advanced Video Codec
    Профиль формата : High@L4.1
    Параметр CABAC формата : Да
    Параметр ReFrames формата : 10 кадров
    Идентификатор кодека : avc1
    Идентификатор кодека/Информация : Advanced Video Coding
    Продолжительность : 1 ч. 33 м.
    Битрейт : 500 Кбит/сек
    Максимальный битрейт : 2511 Кбит/сек
    Ширина : 640 пикселей
    Высота : 360 пикселей
    Соотношение сторон : 16:9
    Режим частоты кадров : Постоянный
    Частота кадров : 24,000 кадра/сек
    Цветовое пространство : YUV
    Субдискретизация насыщенности : 4:2:0
    Битовая глубина : 8 бит
    Тип развёртки : Прогрессивная
    Бит/(Пиксели*Кадры) : 0.090
    Размер потока : 332 Мбайт (79%)
    Заголовок : 264@GPAC0.5.2-DEV-rev248-g39d5978-master
    Библиотека кодирования : x264 core 146 r2538 121396c
    Настройки программы : cabac=1 / ref=10 / deblock=1:-3:-3 / analyse=0x3:0x113 / me=umh / subme=11 / psy=1 / psy_rd=1.00:0.00 / mixed_ref=1 / me_range=48 / chroma_me=1 / trellis=2 / 8x8dct=1 / cqm=0 / deadzone=21,11 / fast_pskip=0 / chroma_qp_offset=-2 / threads=6 / lookahead_threads=1 / sliced_threads=0 / nr=0 / decimate=0 / interlaced=0 / bluray_compat=0 / constrained_intra=0 / bframes=10 / b_pyramid=2 / b_adapt=2 / b_bias=0 / direct=3 / weightb=1 / open_gop=0 / weightp=2 / keyint=240 / keyint_min=24 / scenecut=40 / intra_refresh=0 / rc_lookahead=40 / rc=2pass / mbtree=0 / bitrate=500 / ratetol=1.0 / qcomp=0.60 / qpmin=0 / qpmax=69 / qpstep=4 / cplxblur=20.0 / qblur=0.5 / vbv_maxrate=14000 / vbv_bufsize=14000 / nal_hrd=none / filler=0 / ip_ratio=1.40 / pb_ratio=1.30 / aq=1:1.00
    Дата кодирования : UTC 2017-06-06 22:15:38
    Дата пометки : UTC 2017-06-06 22:15:54

    Аудио
    Идентификатор : 2
    Формат : AAC
    Формат/Информация : Advanced Audio Codec
    Профиль формата : LC
    Идентификатор кодека : 40
    Продолжительность : 1 ч. 33 м.
    Вид битрейта : Переменный
    Битрейт : 127 Кбит/сек
    Максимальный битрейт : 157 Кбит/сек
    Каналы : 2 канала
    Расположение каналов : Front: L R
    Частота : 48,0 КГц
    Частота кадров : 46,875 кадров/сек (1024 spf)
    Метод сжатия : С потерями
    Размер потока : 84,5 Мбайт (20%)
    Дата кодирования : UTC 2017-06-06 18:20:51
    Дата пометки : UTC 2017-06-06 22:15:54
    Свернуть


    Скриншоты
    [screen]http://i94.fastpic.ru/big/2017/0607/7e/27c55096ddbe96d65df1a3184df7a97e.jpg[/screen][screen]http://i96.fastpic.ru/big/2017/0607/b4/1ff401c727bdca70eeb717da8f07bdb4.jpg[/screen][screen]http://i93.fastpic.ru/big/2017/0607/13/a43d4090c556163b14d6f60ad5b04113.jpg[/screen][screen]http://i92.fastpic.ru/big/2017/0607/10/d6ea0a0d84a6e83180c608f8c592ef10.jpg[/screen][screen]http://i93.fastpic.ru/big/2017/0607/72/ad42dc17f2e9af0657e1d5c835e30f72.jpg[/screen][screen]http://i94.fastpic.ru/big/2017/0607/fb/3a3a515a0018ea33a0dcc37d1abcecfb.jpg[/screen]Свернуть


    [img]http://i91.fastpic.ru/big/2017/0430/ee/411863a07f401662e4197d6d41f556ee.gif[/img][img]http://i91.fastpic.ru/big/2017/0430/f8/cb297ab242a60d92522abbf9810f00f8.gif[/img]
    Инструкция по скачиванию
     1  Качаем uTorrent версии 2.0 и выше
     2  После установки, жмем выше под постером на ссылку Скачать [MediaGet] или Скачать .torrent
     3  Открываем скачанный файл через соответствующий клиент: MediaGet или uTorrent
     4  Ждем пока подключатся участники
     5  Качаем
    Комментарии о  Девочки против мальчиков / Girls Against Boys | HDRip 
    Ближайшее в кино
    Вверх