• Игры для PS4
  • Игры для PS3
  • Игры для XBOX360
  • Игры для PC
  • Игры для PS2
  • Игры для PSP
  • Для телефонов
  • Музыка
  • Книги / Журналы
  • Обои
  • Опрос
    Удобен ли сайт в использовании?
      0
    • Очень удобен, все понятно1,1,false,300,full
    • Удобен1,2,false,300,full
    • Средне1,3,false,300,full
    • Неудобен, трудно ориентироваться1,4,false,300,full
    • Совсем неудобен1,5,false,300,full
    Статистика
    Всего онлайн -
    Гостей -
    Пользователей -
    Короли трекера
    
    Благодарности () Закрыть
    Мы "В КОНТАКТЕ"


    Страна: СССР
    Производство: Киностудия им. Горького

    Жанр:  сказка, комедия, приключения, семейный
    Год выпуска: 1986
    Продолжительность: 01:14:08

    Перевод: Не требуется
    Cубтитры: нет
    Оригинальная аудиодорожка: русский

    Режиссер: Михаил Юзовский

    В ролях:
    Владислав Толдыков, Алексей Войтюк, Геннадий Фролов (II), Олег Табаков, Валентина Талызина, Марина Зудина, Олег Анофриев, Марина Яковлева, Татьяна Пельтцер, Юрий Медведев, Семён Фарада, Владимир Фёдоров, Василий Кортуков...

    Описание:
    Однажды, после дождичка в четверг, у царя Авдея родился первенец. В тот же день родила мальчика и ключница Варвара, а в капусте был обнаружен новорожденный подкидыш. Всех троих нарекли Иванами - и Авдей приказал растить хлопцев вместе. Однако ключница сделала по-своему: положила в царскую люльку своего Ивана, а двух других отдала разбойникам. Пройдет двадцать лет, прежде чем сын царевича победит Кощея Бессмертного, найдет отца и освободит Жар-птицу, которая станет прекрасной девушкой. Кроме всевозможных приключений в фильме много песен и танцев.

    [img]http://new-team.org/images/sample_video.png[/img]

    Источник: DVD9 R2
    Качество видео: DVDRip-AVC
    Формат видео: MKV

    Видео: 720->1010x430 (2,35:1), 25 fps, H264 ~ 1717 kbps avg, 0.222 bit/pixel
    Аудио: 48 kHz, Dolby Digital AC3 2.0, 192 kbps русский
    Аудио: 48 kHz, Dolby Digital AC3 2.0, 192 kbps немецкий

    MediaInfo

    Общее
    Полное имя                               : Posle.dozhdichka.v.chetverg.1986.DVDRip-AVC_[New-team]_by_AVP_Studio.mkv
    Формат                                   : Matroska
    Версия формата                           : Version 4 / Version 2
    Размер файла                             : 1,09 Гбайт
    Продолжительность                        : 1 ч. 14 м.
    Общий поток                              : 2103 Кбит/сек
    Дата кодирования                         : UTC 2017-06-04 17:55:11
    Программа кодирования                    : mkvmerge v11.0.0 ("Alive") 64bit
    Библиотека кодирования                   : libebml v1.3.4 + libmatroska v1.4.5

    Видео
    Идентификатор                            : 1
    Формат                                   : AVC
    Формат/Информация                        : Advanced Video Codec
    Профиль формата                          : High@L4.1
    Параметр CABAC формата                   : Да
    Параметр ReFrames формата                : 10 кадров
    Идентификатор кодека                     : V_MPEG4/ISO/AVC
    Продолжительность                        : 1 ч. 14 м.
    Битрейт                                  : 1717 Кбит/сек
    Ширина                                   : 720 пикселей
    Высота                                   : 430 пикселей
    Соотношение сторон                       : 2,35:1
    Режим частоты кадров                     : Постоянный
    Частота кадров                           : 25,000 кадров/сек
    Цветовое пространство                    : YUV
    Субдискретизация насыщенности            : 4:2:0
    Битовая глубина                          : 8 бит
    Тип развёртки                            : Прогрессивная
    Бит/(Пиксели*Кадры)                      : 0.222
    Размер потока                            : 910 Мбайт (82%)
    Библиотека кодирования                   : x264 core 130 r2273 b3065e6
    Настройки программы                      : cabac=1 / ref=10 / deblock=1:-2:-1 / analyse=0x3:0x113 / me=umh / subme=10 / psy=1 / psy_rd=1.00:0.00 / mixed_ref=1 / me_range=32 / chroma_me=1 / trellis=2 / 8x8dct=1 / cqm=0 / deadzone=21,11 / fast_pskip=1 / chroma_qp_offset=-2 / threads=6 / lookahead_threads=1 / sliced_threads=0 / nr=0 / decimate=0 / interlaced=0 / bluray_compat=0 / constrained_intra=0 / bframes=8 / b_pyramid=2 / b_adapt=2 / b_bias=0 / direct=3 / weightb=1 / open_gop=0 / weightp=2 / keyint=250 / keyint_min=25 / scenecut=40 / intra_refresh=0 / rc=2pass / mbtree=0 / bitrate=1717 / ratetol=1.0 / qcomp=0.60 / qpmin=0 / qpmax=69 / qpstep=4 / cplxblur=20.0 / qblur=0.5 / ip_ratio=1.40 / pb_ratio=1.30 / aq=1:1.00
    Default                                  : Да
    Forced                                   : Нет

    Аудио #1
    Идентификатор                            : 2
    Формат                                   : AC-3
    Формат/Информация                        : Audio Coding 3
    Параметр Endianness формата              : Big
    Идентификатор кодека                     : A_AC3
    Продолжительность                        : 1 ч. 14 м.
    Вид битрейта                             : Постоянный
    Битрейт                                  : 192 Кбит/сек
    Каналы                                   : 2 канала
    Расположение каналов                     : Front: L R
    Частота                                  : 48,0 КГц
    Частота кадров                           : 31,250 кадров/сек (1536 spf)
    Битовая глубина                          : 16 бит
    Метод сжатия                             : С потерями
    Размер потока                            : 102 Мбайт (9%)
    Default                                  : Да
    Forced                                   : Нет

    Аудио #2
    Идентификатор                            : 3
    Формат                                   : AC-3
    Формат/Информация                        : Audio Coding 3
    Параметр Endianness формата              : Big
    Идентификатор кодека                     : A_AC3
    Продолжительность                        : 1 ч. 14 м.
    Вид битрейта                             : Постоянный
    Битрейт                                  : 192 Кбит/сек
    Каналы                                   : 2 канала
    Расположение каналов                     : Front: L R
    Частота                                  : 48,0 КГц
    Частота кадров                           : 31,250 кадров/сек (1536 spf)
    Битовая глубина                          : 16 бит
    Метод сжатия                             : С потерями
    Размер потока                            : 102 Мбайт (9%)
    Default                                  : Нет
    Forced                                   : Нет
    Свернуть


    Инструкция по скачиванию
     1  Качаем uTorrent версии 2.0 и выше
     2  После установки, жмем выше под постером на ссылку Скачать [MediaGet] или Скачать .torrent
     3  Открываем скачанный файл через соответствующий клиент: MediaGet или uTorrent
     4  Ждем пока подключатся участники
     5  Качаем
    Комментарии о  После дождичка в четверг | DVDRip-AVC 
    Ближайшее в кино
    Вверх